<?xml version="1.0" standalone="no"?>
<!DOCTYPE svg PUBLIC "-//W3C//DTD SVG 1.1//EN" "http://www.w3.org/Graphics/SVG/1.1/DTD/svg11.dtd" >
<svg xmlns="http://www.w3.org/2000/svg" xmlns:xlink="http://www.w3.org/1999/xlink" version="1.1">
<metadata>
Created by FontForge 20190801 at Thu Oct 27 10:41:48 2016
 By Jimmy Wärting
2016 Copyright Webme GmbH
</metadata>
<defs>
<font id="HomepageBaukasten-Book" horiz-adv-x="500" >
  <font-face 
    font-family="HomepageBaukasten Book"
    font-weight="400"
    font-stretch="normal"
    units-per-em="1000"
    panose-1="0 0 0 0 0 0 0 0 0 0"
    ascent="842"
    descent="-158"
    x-height="517"
    cap-height="700"
    bbox="-68 -164.478 1158 907"
    underline-thickness="20"
    underline-position="-133"
    unicode-range="U+0020-FB02"
  />
<missing-glyph 
 />
    <glyph glyph-name=".notdef" 
 />
    <glyph glyph-name="space" unicode=" " horiz-adv-x="300" 
 />
    <glyph glyph-name="exclam" unicode="!" horiz-adv-x="271" 
d="M193.5 687.5q10.5 -10.5 10.5 -25.5v-39h-130v39q0 15 11 25.5t26 10.5h56q16 0 26.5 -10.5zM74 608h129v-305h-129v305zM103 334h14v246h-14v-246zM132 334h14v246h-14v-246zM160 334h15v246h-15v-246zM74 287h129l-36 -74h-56zM118 197h40l-19 -42zM90 105h92v-105h-92
v105z" />
    <glyph glyph-name="quotedbl" unicode="&#x22;" horiz-adv-x="440" 
d="M188 700v-5l-81 -267h-42l30 272h93zM383 700v-5l-81 -267h-42l31 272h92z" />
    <glyph glyph-name="numbersign" unicode="#" horiz-adv-x="700" 
d="M497 246h118v-69h-129l-31 -177h-70l30 177h-190l-31 -177h-70l30 177h-109v69h121l37 212h-119v69h130l30 173h70l-29 -173h190l30 173h70l-29 -173h108v-69h-120zM237 246h190l36 212h-190z" />
    <glyph glyph-name="dollar" unicode="$" horiz-adv-x="636" 
d="M510 57.5q-59 -51.5 -154 -57.5v-98h-64v100q-129 12 -236 103l45 60q47 -42 93.5 -65.5t100.5 -29.5v250q-112 27 -162.5 72t-50.5 123q0 51 27 92t74.5 65.5t108.5 27.5v58h64v-60q54 -5 99.5 -25t91.5 -55l-43 -60q-68 58 -151 72v-246q114 -26 165 -72t51 -123
q0 -80 -59 -131.5zM196 599q-37 -32 -37 -79q0 -46 28.5 -74t107.5 -48v235q-62 -2 -99 -34zM462.5 259q-29.5 28 -109.5 47v-239q63 3 101 35t38 82q0 47 -29.5 75z" />
    <glyph glyph-name="percent" unicode="%" horiz-adv-x="834" 
d="M349 440.5q-20 -41.5 -56.5 -66t-82.5 -24.5t-82 24.5t-56 65t-20 88.5t20 89.5t56.5 66t83.5 24.5q46 0 81.5 -24.5t55.5 -65t20 -88.5t-20 -89.5zM124 0l514 700h71l-513 -700h-72zM276 616.5q-27 35.5 -66 35.5q-41 0 -66 -35t-25 -87q0 -53 27 -88.5t66 -35.5
q40 0 65.5 35t25.5 87q0 53 -27 88.5zM761 82.5q-20 -41.5 -56 -66t-83 -24.5q-46 0 -81.5 24.5t-55.5 65t-20 88.5t20 89.5t56.5 66t82.5 24.5t82 -24.5t55.5 -65t19.5 -88.5t-20 -89.5zM688 258.5q-27 35.5 -66 35.5q-40 0 -65.5 -35t-25.5 -87q0 -53 27 -88.5t66 -35.5
q41 0 66 35t25 87q0 53 -27 88.5z" />
    <glyph glyph-name="ampersand" unicode="&#x26;" horiz-adv-x="696" 
d="M494 99q-101 -109 -229 -109q-63 0 -113 24.5t-78.5 69.5t-28.5 103q0 69 43.5 120t125.5 83q-37 43 -53.5 78.5t-16.5 76.5q0 46 23 84.5t65.5 60.5t96.5 22q48 0 87 -21t61 -57.5t22 -80.5q0 -66 -42.5 -110.5t-122.5 -72.5l160 -163q45 65 84 156l65 -30
q-53 -113 -101 -176l122 -125l-60 -46zM397 619.5q-28 27.5 -71 27.5q-47 0 -76.5 -29t-29.5 -73q0 -31 15 -59t55 -71q68 23 101.5 55.5t33.5 78.5q0 43 -28 70.5zM158.5 276.5q-33.5 -39.5 -33.5 -86.5q0 -57 41 -95t105 -38q92 0 175 91l-187 193q-67 -25 -100.5 -64.5z
" />
    <glyph glyph-name="quoteright" unicode="&#x2019;" horiz-adv-x="245" 
d="M105 542.5q16 20.5 13 52.5h-36v105h92v-90q0 -60 -26.5 -92t-84.5 -45l-12 35q38 14 54 34.5z" />
    <glyph glyph-name="parenleft" unicode="(" horiz-adv-x="434" 
d="M204 497.5q-58 -92.5 -58 -210.5t58 -210.5t174 -166.5l-33 -51q-135 76 -206 184t-71 244t71 244t206 184l33 -51q-116 -74 -174 -166.5z" />
    <glyph glyph-name="parenright" unicode=")" horiz-adv-x="434" 
d="M295 531q71 -108 71 -244t-71 -244t-206 -184l-33 51q116 74 174 166.5t58 210.5t-58 210.5t-174 166.5l33 51q135 -76 206 -184z" />
    <glyph glyph-name="asterisk" unicode="*" horiz-adv-x="430" 
d="M231 522l10 -125h-52l10 125l-103 -73l-27 47l116 53l-116 54l27 46l103 -72l-10 125h52l-10 -125l103 72l27 -46l-116 -54l116 -53l-27 -47z" />
    <glyph glyph-name="plus" unicode="+" horiz-adv-x="640" 
d="M357 594v-206h208v-72h-208v-206h-74v206h-208v72h208v206h74z" />
    <glyph glyph-name="comma" unicode="," horiz-adv-x="245" 
d="M100 -52.5q16 20.5 13 52.5h-36v105h92v-90q0 -60 -26.5 -92t-84.5 -45l-12 35q38 14 54 34.5z" />
    <glyph glyph-name="hyphen" unicode="-" horiz-adv-x="408" 
d="M65 341h278v-81h-278v81z" />
    <glyph glyph-name="period" unicode="." horiz-adv-x="245" 
d="M77 105h92v-105h-92v105z" />
    <glyph glyph-name="slash" unicode="/" horiz-adv-x="508" 
d="M50 -128h-71l464 926h71z" />
    <glyph glyph-name="zero" unicode="0" horiz-adv-x="715" 
d="M616 169q-37 -83 -104 -132t-155 -49t-155 48.5t-103.5 131t-36.5 181.5t37 182t104.5 132t155.5 49t154.5 -48.5t103 -131t36.5 -181.5t-37 -182zM544.5 493.5q-26.5 66.5 -75.5 106.5t-112 40q-64 0 -112 -39.5t-74.5 -105.5t-26.5 -144t27 -144.5t75.5 -106.5
t112.5 -40q63 0 111.5 39.5t74.5 105.5t26 144t-26.5 144.5z" />
    <glyph glyph-name="one" unicode="1" horiz-adv-x="358" 
d="M257 705v-705h-78v623l-132 -41l-19 64l171 59h58z" />
    <glyph glyph-name="two" unicode="2" horiz-adv-x="599" 
d="M206.5 610q-43.5 -29 -87.5 -91l-58 42q51 76 108 112.5t144 36.5q63 0 112 -25.5t77 -71t28 -102.5q0 -51 -18 -92t-55 -82t-104 -99l-187 -166h371v-72h-489v61l254 224q82 73 114 120.5t32 99.5q0 60 -41 97t-100 37q-57 0 -100.5 -29z" />
    <glyph glyph-name="three" unicode="3" horiz-adv-x="613" 
d="M87 700h447v-58l-220 -244q101 -8 166 -57.5t65 -140.5q0 -62 -31 -110t-84.5 -75t-118.5 -27q-84 0 -150 33.5t-111 91.5l57 51q42 -51 92 -77.5t113 -26.5q65 0 109 38t44 99q0 65 -53.5 100.5t-142.5 35.5h-45l-16 47l221 249h-342v71z" />
    <glyph glyph-name="four" unicode="4" horiz-adv-x="671" 
d="M508 232h109v-66h-109v-166h-76v166h-369l-20 57l396 482h69v-473zM138 232h294v361z" />
    <glyph glyph-name="five" unicode="5" horiz-adv-x="612" 
d="M522 700v-73h-334l-15 -224q35 15 66.5 23t71.5 8q68 0 123.5 -26t87 -75t31.5 -114q0 -68 -32 -120.5t-89 -81.5t-129 -29q-71 0 -135 30t-115 81l52 57q99 -96 199 -96q49 0 87.5 20t60 55.5t21.5 80.5q0 66 -48.5 107t-125.5 41q-72 0 -147 -40l-53 35l20 341h403z
" />
    <glyph glyph-name="six" unicode="6" horiz-adv-x="647" 
d="M433 623q-39 17 -85 17q-62 0 -109 -39.5t-71.5 -109.5t-24.5 -160q73 107 199 107q66 0 121.5 -27t88 -76t32.5 -113q0 -67 -33 -120.5t-90.5 -83.5t-127.5 -30q-56 0 -103 18.5t-81 52.5q-45 45 -66.5 107t-21.5 165q0 108 35 194.5t101 136.5t155 50q60 0 109 -20
t98 -60l-46 -61q-41 35 -80 52zM481.5 296.5q-21.5 34.5 -60.5 54t-89 19.5q-51 0 -91 -21.5t-62 -57t-22 -75.5q0 -45 23 -81t63 -56.5t91 -20.5q50 0 88.5 21.5t59.5 58t21 81.5q0 43 -21.5 77.5z" />
    <glyph glyph-name="seven" unicode="7" horiz-adv-x="596" 
d="M543 700v-59l-318 -641h-88l316 628h-385v72h475z" />
    <glyph glyph-name="eight" unicode="8" horiz-adv-x="630" 
d="M543.5 85.5q-34.5 -45.5 -94.5 -70.5t-134 -25t-134 25t-94.5 70.5t-34.5 103.5q0 61 39 105t105 68q-120 55 -120 162q0 53 32.5 95.5t87.5 66.5t119 24t119 -24t87.5 -66.5t32.5 -95.5q0 -107 -120 -162q66 -25 105 -68.5t39 -103.5q0 -59 -34.5 -104.5zM454 581
q-21 28 -57.5 44t-81.5 16q-69 0 -114.5 -34.5t-45.5 -87.5q0 -57 46 -93t114 -36t114 36t46 93q0 34 -21 62zM473.5 260.5q-24.5 30.5 -66 47.5t-92.5 17t-92.5 -17t-66 -47.5t-24.5 -69.5q0 -36 22 -66.5t63.5 -48t97.5 -17.5t97.5 17.5t63.5 48t22 66.5q0 39 -24.5 69.5z
" />
    <glyph glyph-name="nine" unicode="9" horiz-adv-x="647" 
d="M549.5 171.5q-36.5 -86.5 -103 -135t-151.5 -48.5q-64 0 -115.5 22.5t-100.5 63.5l46 61q44 -38 85 -56.5t87 -18.5q62 0 110 39.5t73.5 109t24.5 158.5q-31 -51 -80.5 -81.5t-117.5 -30.5q-71 0 -126.5 28t-86.5 77.5t-31 112.5q0 67 32 121.5t89.5 86t130.5 31.5
q112 0 184 -72q44 -44 65.5 -107.5t21.5 -164.5q0 -110 -36.5 -196.5zM467.5 563.5q-22.5 36.5 -63.5 57.5t-92 21t-89 -22.5t-58.5 -60t-20.5 -82.5q0 -68 48 -111t124 -43q52 0 91.5 22.5t61 59t21.5 77.5q0 45 -22.5 81.5z" />
    <glyph glyph-name="colon" unicode=":" horiz-adv-x="255" 
d="M82 517h92v-105h-92v105zM82 105h92v-105h-92v105z" />
    <glyph glyph-name="semicolon" unicode=";" horiz-adv-x="255" 
d="M82 517h92v-105h-92v105zM105 -52.5q16 20.5 13 52.5h-36v105h92v-90q0 -60 -26.5 -92t-84.5 -45l-12 35q38 14 54 34.5z" />
    <glyph glyph-name="less" unicode="&#x3c;" horiz-adv-x="640" 
d="M541 541l-385 -188l385 -189v-78l-469 233v66l469 233v-77z" />
    <glyph glyph-name="equal" unicode="=" horiz-adv-x="640" 
d="M550 432h-460v74h460v-74zM550 198h-460v74h460v-74z" />
    <glyph glyph-name="greater" unicode="&#x3e;" horiz-adv-x="640" 
d="M99 163l385 188l-385 189v78l469 -233v-66l-469 -233v77z" />
    <glyph glyph-name="question" unicode="?" horiz-adv-x="537" 
d="M357.5 404.5q51.5 37.5 51.5 102.5q0 56 -40 93.5t-106 37.5q-54 0 -98 -24t-84 -70l-51 49q46 56 102.5 86t132.5 30q66 0 117 -25.5t79 -71t28 -102.5q0 -89 -57.5 -140t-150.5 -64l-10 -108h-51l-15 162l5 5q96 2 147.5 39.5zM199 105h92v-105h-92v105z" />
    <glyph glyph-name="at" unicode="@" horiz-adv-x="980" 
d="M900.5 180q-26.5 -55 -69.5 -82t-91 -27q-53 0 -89 22.5t-51 61.5q-33 -39 -73 -61.5t-92 -22.5q-49 0 -90 23t-65 64t-24 95q0 68 33.5 125.5t87 90.5t110.5 33q54 0 89.5 -23.5t56.5 -59.5l13 69l67 -9l-40 -227q-7 -39 -7 -61q0 -38 22.5 -59.5t62.5 -21.5
q37 0 69 22.5t51.5 69t19.5 114.5q0 92 -52.5 175.5t-144.5 135t-203 51.5q-113 0 -205 -54.5t-144.5 -147t-52.5 -202.5q0 -111 52.5 -203t146.5 -145.5t211 -53.5q73 0 131 16.5t118 51.5l16 -27q-60 -37 -125 -56t-140 -19q-125 0 -227 59t-160.5 159t-58.5 218
t58.5 218.5t159 160t220.5 59.5q119 0 219.5 -55t158.5 -146t58 -195q0 -81 -26.5 -136zM579.5 404q-34.5 36 -87.5 36q-42 0 -80 -24t-61 -66t-23 -92q0 -58 34 -91.5t88 -33.5q42 0 80 25.5t61 67t23 87.5q0 55 -34.5 91z" />
    <glyph glyph-name="A" unicode="A" horiz-adv-x="790" 
d="M666 0l-82 185h-381l-83 -185h-81l319 705h74l319 -705h-85zM234 256h319l-159 357z" />
    <glyph glyph-name="B" unicode="B" horiz-adv-x="722" 
d="M563 652.5q62 -47.5 62 -127.5q0 -63 -31.5 -102.5t-79.5 -60.5q150 -45 150 -170q0 -90 -69 -141t-185 -51h-311v700h298q104 0 166 -47.5zM501 420.5q44 32.5 44 93.5q0 53 -40.5 84t-114.5 31h-213v-241h207q73 0 117 32.5zM538 104.5q46 33.5 46 92.5
q0 58 -47.5 89.5t-138.5 31.5h-221v-247h235q80 0 126 33.5z" />
    <glyph glyph-name="C" unicode="C" horiz-adv-x="738" 
d="M574 19q-65 -31 -155 -31q-99 0 -179.5 48t-126 130.5t-45.5 182.5q0 99 45.5 182.5t126.5 132t182 48.5q89 0 152 -28t121 -83l-54 -58q-49 46 -101 71t-119 25q-76 0 -138 -38t-97.5 -104t-35.5 -146t35.5 -146.5t97.5 -105t138 -38.5q68 0 120 25t106 76l52 -51
q-60 -61 -125 -92z" />
    <glyph glyph-name="D" unicode="D" horiz-adv-x="782" 
d="M666.5 172.5q-47.5 -80.5 -132 -126.5t-192.5 -46h-243v700h243q108 0 192.5 -45.5t132 -125.5t47.5 -178t-47.5 -178.5zM596 490.5q-36 63.5 -102 100t-152 36.5h-164v-554h164q87 0 152.5 36t101.5 99t36 141t-36 141.5z" />
    <glyph glyph-name="E" unicode="E" horiz-adv-x="670" 
d="M178 628v-239h382v-72h-382v-245h432v-72h-511v700h506v-72h-427z" />
    <glyph glyph-name="F" unicode="F" horiz-adv-x="656" 
d="M178 627v-250h379v-72h-379v-305h-79v700h503v-73h-424z" />
    <glyph glyph-name="G" unicode="G" horiz-adv-x="784" 
d="M579.5 17.5q-72.5 -29.5 -155.5 -29.5q-107 0 -188 47.5t-124.5 130t-43.5 183.5q0 97 44.5 180t124.5 133t182 50q84 0 144.5 -23t116.5 -70l-51 -60q-45 39 -94.5 59.5t-118.5 20.5q-76 0 -136.5 -39t-95 -105t-34.5 -144q0 -84 34 -150.5t97 -104t146 -37.5
q57 0 110.5 19.5t91.5 50.5v174h-213v71h289v-279q-53 -48 -125.5 -77.5z" />
    <glyph glyph-name="H" unicode="H" horiz-adv-x="760" 
d="M178 0h-79v700h79v-311h404v311h79v-700h-79v315h-404v-315z" />
    <glyph glyph-name="I" unicode="I" horiz-adv-x="291" 
d="M185 0h-79v700h79v-700z" />
    <glyph glyph-name="J" unicode="J" horiz-adv-x="553" 
d="M405 52.5q-60 -62.5 -158 -62.5q-140 0 -216 124l57 49q34 -51 70.5 -75.5t89.5 -24.5q61 0 99 43.5t38 124.5v469h80v-468q0 -117 -60 -179.5z" />
    <glyph glyph-name="K" unicode="K" horiz-adv-x="719" 
d="M596 0l-269 339l-149 -151v-188h-79v700h79v-418l402 418h102l-300 -306l313 -394h-99z" />
    <glyph glyph-name="L" unicode="L" horiz-adv-x="619" 
d="M178 700v-627h394v-73h-473v700h79z" />
    <glyph glyph-name="M" unicode="M" horiz-adv-x="868" 
d="M431 192l-255 374v-566h-77v700h80l255 -382l255 382h80v-700h-79v567l-255 -375h-4z" />
    <glyph glyph-name="N" unicode="N" horiz-adv-x="790" 
d="M691 700v-700h-63l-452 574v-574h-77v700h74l441 -561v561h77z" />
    <glyph glyph-name="O" unicode="O" horiz-adv-x="850" 
d="M736.5 170.5q-45.5 -83.5 -127 -133t-185.5 -49.5t-185 49t-126 132t-45 180t45.5 180.5t127 133t185.5 49.5t185 -49t126 -132t45 -180t-45.5 -180.5zM664.5 494.5q-35.5 66.5 -99 105.5t-141.5 39t-140.5 -38.5t-98 -104.5t-35.5 -145t35.5 -145.5t99 -105.5t141.5 -39
t140.5 38.5t98 104.5t35.5 145t-35.5 145.5z" />
    <glyph glyph-name="P" unicode="P" horiz-adv-x="668" 
d="M586 352q-37 -52 -99.5 -78.5t-138.5 -26.5h-170v-247h-79v700h262q79 0 138 -27t91.5 -77t32.5 -119q0 -73 -37 -125zM492.5 587.5q-50.5 39.5 -137.5 39.5h-177v-308h173q87 0 139.5 42.5t52.5 112.5q0 74 -50.5 113.5z" />
    <glyph glyph-name="Q" unicode="Q" horiz-adv-x="850" 
d="M737 -21l-92 84q-96 -75 -221 -75q-104 0 -185 49t-126 132t-45 180t45.5 180.5t127 133t185.5 49.5t185 -49t126 -132t45 -180q0 -66 -21.5 -127t-62.5 -109l93 -77zM510 284l129 -117q29 37 45 84t16 98q0 79 -35.5 145.5t-99 105.5t-141.5 39t-140.5 -38.5t-98 -104.5
t-35.5 -145t35.5 -145.5t99 -105.5t141.5 -39q46 0 87 14t74 39l-130 111z" />
    <glyph glyph-name="R" unicode="R" horiz-adv-x="723" 
d="M378 272h-200v-272h-79v700h301q76 0 133.5 -26t88.5 -73t31 -110q0 -85 -52 -137t-138 -68l215 -286h-97zM526 590q-47 37 -132 37h-216v-284h215q80 0 130 39t50 106q0 65 -47 102z" />
    <glyph glyph-name="S" unicode="S" horiz-adv-x="640" 
d="M176 466q16 -24 57 -43t117 -35q119 -26 173.5 -72.5t54.5 -126.5q0 -59 -30.5 -104.5t-85 -70t-123.5 -24.5q-83 0 -152.5 27.5t-133.5 84.5l49 58q56 -51 112.5 -75t127.5 -24q70 0 113 33.5t43 86.5q0 35 -15.5 58.5t-54.5 42t-112 33.5q-124 27 -179.5 72.5
t-55.5 130.5q0 55 29.5 99t82 68.5t118.5 24.5q75 0 133 -21t113 -65l-46 -61q-48 39 -97.5 57.5t-104.5 18.5q-67 0 -108 -32.5t-41 -81.5q0 -35 16 -59z" />
    <glyph glyph-name="T" unicode="T" horiz-adv-x="648" 
d="M284 0v627h-235v73h550v-73h-235v-627h-80z" />
    <glyph glyph-name="U" unicode="U" horiz-adv-x="759" 
d="M592 69q-79 -80 -213 -80q-87 0 -152.5 35t-102 103.5t-36.5 165.5v407h79v-402q0 -113 56.5 -174.5t157.5 -61.5q99 0 155 59t56 172v407h79v-401q0 -150 -79 -230z" />
    <glyph glyph-name="V" unicode="V" horiz-adv-x="750" 
d="M711 700l-301 -705h-70l-301 705h88l249 -603l250 603h85z" />
    <glyph glyph-name="W" unicode="W" horiz-adv-x="1107" 
d="M588 702l192 -585l200 583h83l-250 -705h-67l-192 568l-193 -568h-66l-250 705h86l200 -583l192 585h65z" />
    <glyph glyph-name="X" unicode="X" horiz-adv-x="725" 
d="M361 301l-224 -301h-91l269 357l-259 343h93l215 -286l213 286h92l-259 -342l269 -358h-94z" />
    <glyph glyph-name="Y" unicode="Y" horiz-adv-x="716" 
d="M318 0v277l-291 423h96l236 -350l238 350h92l-291 -422v-278h-80z" />
    <glyph glyph-name="Z" unicode="Z" horiz-adv-x="693" 
d="M82 700h546v-53l-454 -576h454v-71h-561v53l453 576h-438v71z" />
    <glyph glyph-name="bracketleft" unicode="[" horiz-adv-x="439" 
d="M167 640v-710h213v-60h-286v830h286v-60h-213z" />
    <glyph glyph-name="backslash" unicode="\" horiz-adv-x="508" 
d="M458 -128l-464 926h71l464 -926h-71z" />
    <glyph glyph-name="bracketright" unicode="]" horiz-adv-x="439" 
d="M345 -130h-286v60h214v710h-214v60h286v-830z" />
    <glyph glyph-name="asciicircum" unicode="^" 
d="M65 493l155 209h60l155 -209h-68l-118 154l-118 -154h-66z" />
    <glyph glyph-name="underscore" unicode="_" horiz-adv-x="600" 
d="M602 -160h-604v63h604v-63z" />
    <glyph glyph-name="quoteleft" unicode="&#x2018;" horiz-adv-x="245" 
d="M141 636q-16 -21 -14 -53h37v-105h-92v90q0 60 26 92t84 45l12 -35q-37 -13 -53 -34z" />
    <glyph glyph-name="a" unicode="a" horiz-adv-x="579" 
d="M193 446q-37 -10 -77 -28l-23 63q47 21 91 32t97 11q106 0 163 -53t57 -155v-316h-74v78q-30 -40 -77 -64.5t-110 -24.5q-50 0 -94 18.5t-71.5 55t-27.5 88.5q0 81 60 124.5t161 43.5q81 0 159 -22v18q0 69 -40 105t-114 36q-43 0 -80 -10zM164.5 233
q-39.5 -29 -39.5 -79q0 -48 37.5 -76t92.5 -28q47 0 87 18t63 50t23 72v50q-76 22 -152 22q-72 0 -111.5 -29z" />
    <glyph glyph-name="b" unicode="b" horiz-adv-x="664" 
d="M573 116q-35 -61 -91.5 -94t-120.5 -33q-122 0 -198 110v-99h-77v730h77v-317q78 115 198 115q63 0 120 -32.5t92 -93.5t35 -143t-35 -143zM504.5 363.5q-24.5 45.5 -66.5 70.5t-91 25q-48 0 -91 -25.5t-69.5 -71t-26.5 -103.5t26.5 -104t69.5 -71.5t91 -25.5
q50 0 91.5 24t66 69.5t24.5 106.5q0 60 -24.5 105.5z" />
    <glyph glyph-name="c" unicode="c" horiz-adv-x="571" 
d="M437 14q-50 -26 -118 -26q-74 0 -134.5 36.5t-95.5 98.5t-35 134q0 73 35 135t95.5 99t134.5 37q68 0 117 -24.5t90 -67.5l-51 -54q-36 37 -72.5 57.5t-84.5 20.5q-52 0 -94 -27t-66.5 -73t-24.5 -101q0 -56 25 -102t68.5 -73t96.5 -27q86 0 158 77l49 -46
q-43 -48 -93 -74z" />
    <glyph glyph-name="d" unicode="d" horiz-adv-x="664" 
d="M501 104q-78 -115 -198 -115q-63 0 -120 32.5t-92 93.5t-35 143t35 143t92 94t120 33q122 0 198 -110v312h77v-730h-77v104zM477.5 362.5q-26.5 45.5 -69.5 71t-91 25.5q-50 0 -91.5 -24t-66 -69.5t-24.5 -106.5q0 -60 24.5 -105.5t66.5 -70.5t91 -25q48 0 91 25.5
t69.5 71.5t26.5 104t-26.5 103.5z" />
    <glyph glyph-name="e" unicode="e" horiz-adv-x="592" 
d="M191.5 102q51.5 -47 122.5 -47q51 0 90 19t73 54l48 -43q-42 -47 -93 -72t-120 -25q-71 0 -130 34t-93.5 95.5t-34.5 140.5q0 74 32 136t89 98t127 36q74 0 129 -36t83.5 -98.5t28.5 -139.5q0 -15 -1 -24h-410q8 -81 59.5 -128zM416 413q-43 50 -116 50q-67 0 -113.5 -50
t-54.5 -126h333q-6 76 -49 126z" />
    <glyph glyph-name="f" unicode="f" horiz-adv-x="367" 
d="M355 449h-163v-449h-77v449h-71v67h71v45q0 84 40.5 128.5t115.5 44.5q49 0 85 -13v-67q-46 13 -75 13q-90 0 -90 -110v-42h164v-66z" />
    <glyph glyph-name="g" unicode="g" horiz-adv-x="664" 
d="M507.5 -97.5q-70.5 -64.5 -192.5 -64.5q-131 0 -235 72l35 60q91 -66 199 -66q87 0 137.5 47.5t50.5 136.5v61q-82 -109 -203 -109q-63 0 -119 30t-90 85t-34 128t34.5 129t90.5 86t118 30q124 0 202 -104v93h77v-427q0 -123 -70.5 -187.5zM477.5 376q-26.5 40 -70.5 62
t-93 22t-90 -21.5t-65 -61t-24 -92.5q0 -52 24.5 -92t65.5 -62.5t89 -22.5q49 0 93 22t70.5 62.5t26.5 91.5q0 52 -26.5 92z" />
    <glyph glyph-name="h" unicode="h" horiz-adv-x="616" 
d="M86 0v730h77v-303q61 101 177 101q92 0 145 -56.5t53 -150.5v-321h-77v302q0 73 -37.5 114.5t-105.5 41.5q-67 0 -111 -45t-44 -117v-296h-77z" />
    <glyph glyph-name="i" unicode="i" horiz-adv-x="263" 
d="M88 715h88v-85h-88v85zM93 517h77v-517h-77v517z" />
    <glyph glyph-name="j" unicode="j" horiz-adv-x="263" 
d="M88 715h88v-85h-88v85zM170 -30q0 -67 -33 -100t-93 -33q-27 0 -48 5v63q18 -3 38 -3q27 0 43 17t16 52v546h77v-547z" />
    <glyph glyph-name="k" unicode="k" horiz-adv-x="569" 
d="M453 0l-185 241l-105 -106v-135h-77v730h77v-504l279 291h96l-217 -222l224 -295h-92z" />
    <glyph glyph-name="l" unicode="l" horiz-adv-x="263" 
d="M93 730h77v-730h-77v730z" />
    <glyph glyph-name="m" unicode="m" horiz-adv-x="951" 
d="M678 528q89 0 140.5 -56t51.5 -152v-320h-77v302q0 75 -35.5 115.5t-98.5 40.5q-61 0 -102 -43t-41 -117v-298h-76v304q0 72 -35.5 113t-97.5 41q-41 0 -73.5 -21t-51.5 -58t-19 -84v-295h-77v517h77v-87q30 45 69 71.5t98 26.5q60 0 101.5 -28t64.5 -75q67 103 182 103z
" />
    <glyph glyph-name="n" unicode="n" horiz-adv-x="616" 
d="M86 0v517h77v-90q61 101 177 101q92 0 145 -56.5t53 -150.5v-321h-77v302q0 73 -37.5 114.5t-105.5 41.5q-67 0 -111 -45t-44 -117v-296h-77z" />
    <glyph glyph-name="o" unicode="o" horiz-adv-x="646" 
d="M557.5 124q-35.5 -62 -97.5 -99t-138 -37t-137 36.5t-96 98t-35 134.5t35 135t97 99t138 37t137.5 -36.5t96.5 -98t35 -134.5t-35.5 -135zM488.5 359.5q-25.5 46.5 -69 73.5t-97.5 27q-55 0 -98 -26.5t-67 -72.5t-24 -102q0 -55 25 -101.5t69 -73.5t97 -27q55 0 98 26.5
t67.5 72.5t24.5 101q0 56 -25.5 102.5z" />
    <glyph glyph-name="p" unicode="p" horiz-adv-x="664" 
d="M573 116q-35 -61 -91.5 -94t-120.5 -33q-122 0 -198 110v-259h-77v677h77v-104q78 115 198 115q63 0 120 -32.5t92 -93.5t35 -143t-35 -143zM504.5 363.5q-24.5 45.5 -66.5 70.5t-91 25q-48 0 -91 -25.5t-69.5 -71t-26.5 -103.5t26.5 -104t69.5 -71.5t91 -25.5
q50 0 91.5 24t66 69.5t24.5 106.5q0 60 -24.5 105.5z" />
    <glyph glyph-name="q" unicode="q" horiz-adv-x="664" 
d="M501 104q-78 -115 -198 -115q-63 0 -120 32.5t-92 93.5t-35 143t35 143t92 94t120 33q122 0 198 -110v99h77v-677h-77v264zM477.5 362.5q-26.5 45.5 -69.5 71t-91 25.5q-50 0 -91.5 -24t-66 -69.5t-24.5 -106.5q0 -60 24.5 -105.5t66.5 -70.5t91 -25q48 0 91 25.5
t69.5 71.5t26.5 104t-26.5 103.5z" />
    <glyph glyph-name="r" unicode="r" horiz-adv-x="405" 
d="M86 0v517h77v-135q30 67 85 107t126 37v-83h-6q-58 0 -104.5 -27t-73.5 -80.5t-27 -129.5v-206h-77z" />
    <glyph glyph-name="s" unicode="s" horiz-adv-x="498" 
d="M389 31.5q-52 -41.5 -132 -41.5q-56 0 -113.5 20.5t-100.5 55.5l39 55q88 -66 179 -66q47 0 77 22.5t30 59.5v2q0 35 -32.5 54t-96.5 37q-53 15 -88 30.5t-59 43.5t-24 72v2q0 66 49.5 107t126.5 41q47 0 96.5 -15.5t89.5 -41.5l-35 -58q-37 24 -76.5 37t-76.5 13
q-45 0 -72.5 -21t-27.5 -54v-2q0 -33 32.5 -50.5t100.5 -38.5q51 -15 85.5 -31.5t57.5 -45t23 -71.5v-2q0 -72 -52 -113.5z" />
    <glyph glyph-name="t" unicode="t" horiz-adv-x="404" 
d="M277 61q38 0 75 18v-66q-42 -22 -93 -22q-67 0 -106.5 35.5t-39.5 110.5v312h-72v68h72v156h77v-156h164v-68h-164v-302q0 -86 87 -86z" />
    <glyph glyph-name="u" unicode="u" horiz-adv-x="616" 
d="M529 517v-517h-76v90q-63 -101 -177 -101q-92 0 -145 56.5t-53 150.5v321h77v-302q0 -73 37.5 -114.5t105.5 -41.5q44 0 79 20.5t55.5 57t20.5 84.5v296h76z" />
    <glyph glyph-name="v" unicode="v" horiz-adv-x="587" 
d="M552 517l-225 -521h-68l-224 521h85l174 -429l175 429h83z" />
    <glyph glyph-name="w" unicode="w" horiz-adv-x="861" 
d="M739 517h80l-182 -521h-67l-139 408l-140 -408h-68l-181 521h82l136 -415l139 417h64l140 -417z" />
    <glyph glyph-name="x" unicode="x" horiz-adv-x="574" 
d="M446 0l-160 211l-161 -211h-86l203 263l-195 254h88l153 -200l153 200h86l-196 -252l204 -265h-89z" />
    <glyph glyph-name="y" unicode="y" horiz-adv-x="591" 
d="M265 -129.5q-40 -33.5 -99 -33.5q-31 0 -57 6.5t-53 19.5l26 61q37 -19 81 -19q35 0 59 21.5t47 75.5l-235 515h85l188 -431l166 431h82l-217 -534q-33 -79 -73 -112.5z" />
    <glyph glyph-name="z" unicode="z" horiz-adv-x="556" 
d="M68 517h436v-49l-344 -403h344v-65h-448v49l343 403h-331v65z" />
    <glyph glyph-name="braceleft" unicode="{" horiz-adv-x="483" 
d="M325.5 626.5q-32.5 -19.5 -43 -47t-10.5 -76.5l1 -75q0 -60 -26.5 -92.5t-77.5 -48.5q53 -17 78.5 -49t25.5 -92l-1 -75q0 -49 10.5 -76.5t43 -47t102.5 -37.5l-12 -51q-87 16 -134.5 43t-65 65t-17.5 94l1 76q0 61 -26.5 90.5t-91.5 29.5h-26v60h26q65 0 91.5 29.5
t26.5 90.5l-1 76q0 56 17.5 94t65 65t134.5 43l12 -51q-70 -18 -102.5 -37.5z" />
    <glyph glyph-name="bar" unicode="|" horiz-adv-x="303" 
d="M119 798h65v-926h-65v926z" />
    <glyph glyph-name="braceright" unicode="}" horiz-adv-x="483" 
d="M157 -52.5q33 19.5 43.5 47t10.5 76.5l-1 75q0 60 26.5 92.5t77.5 48.5q-53 17 -78.5 49t-25.5 92l1 75q0 49 -10.5 76.5t-43.5 47t-103 37.5l13 51q87 -16 134.5 -43t65 -65t17.5 -94l-1 -76q0 -61 26.5 -90.5t90.5 -29.5h26v-60h-26q-64 0 -90.5 -29.5t-26.5 -90.5
l1 -76q0 -56 -17.5 -94t-65 -65t-134.5 -43l-13 51q70 18 103 37.5z" />
    <glyph glyph-name="asciitilde" unicode="~" horiz-adv-x="473" 
d="M363.5 270.5q-21.5 -24.5 -57.5 -24.5q-16 0 -33 6t-43 17q-3 1 -23.5 9.5t-34.5 8.5q-19 0 -29.5 -10.5t-22.5 -39.5l-47 13q15 57 37 81.5t58 24.5q26 0 74 -22q17 -7 33 -13t27 -6q19 0 29.5 10.5t22.5 39.5l46 -13q-15 -57 -36.5 -81.5z" />
    <glyph glyph-name="exclamdown" unicode="&#xa1;" horiz-adv-x="271" 
d="M182 595h-92v105h92v-105zM91 57l23 445h43l24 -445v-57h-90v57z" />
    <glyph glyph-name="cent" unicode="&#xa2;" horiz-adv-x="581" 
d="M440 111.5q-50 -26.5 -116 -26.5q-19 0 -29 2l-18 -93h-65l22 106q-78 28 -127 98t-49 156q0 73 35 135t96 99t134 37h13l15 81h65l-18 -90q40 -10 71.5 -31t60.5 -53l-50 -52q-26 26 -48.5 42.5t-50.5 24.5l-75 -391q16 -2 25 -2q84 1 154 77l48 -45q-43 -48 -93 -74.5z
M319 556q-51 0 -93 -27t-66 -72.5t-24 -100.5q0 -62 31.5 -112t83.5 -74l74 386h-6z" />
    <glyph glyph-name="sterling" unicode="&#xa3;" horiz-adv-x="644" 
d="M209.5 645q58.5 65 162.5 65q74 0 124 -28.5t90 -79.5l-61 -48q-33 41 -68 62t-86 21q-67 0 -104 -44t-37 -121v-108h279v-69h-279v-225h355v-70h-518v46l84 21v228h-84v69h84v108q0 108 58.5 173z" />
    <glyph glyph-name="fraction" unicode="&#x2044;" horiz-adv-x="429" 
d="M8 -98h-76l467 856h76z" />
    <glyph glyph-name="yen" unicode="&#xa5;" horiz-adv-x="686" 
d="M586 178v-62h-205v-116h-76v116h-205v62h205v88h-205v62h181l-254 372h94l223 -342l225 342h90l-255 -372h182v-62h-205v-88h205z" />
    <glyph glyph-name="florin" unicode="&#x192;" horiz-adv-x="514" 
d="M409 638q-39 0 -60 -21t-30 -69l-20 -108h144v-67h-156l-45 -244q-13 -70 -49 -102t-100 -32q-24 0 -52 4v66q19 -4 44 -4q65 0 78 76l44 236h-98v67h109l23 119q14 76 51 111t105 35q48 0 81 -11v-66q-40 10 -69 10z" />
    <glyph glyph-name="section" unicode="&#xa7;" horiz-adv-x="632" 
d="M534.5 266q-35.5 -30 -96.5 -40q35 -18 54.5 -44t19.5 -58q0 -61 -50 -97.5t-134 -36.5q-68 0 -126.5 25.5t-102.5 69.5l50 48q36 -36 82.5 -56.5t98.5 -20.5q50 0 76.5 18.5t26.5 48.5q0 29 -35.5 50t-127.5 43q-114 27 -161 59t-47 84q0 45 35.5 75t96.5 40
q-35 18 -54.5 44t-19.5 58q0 61 50 97.5t134 36.5q68 0 126.5 -25.5t102.5 -69.5l-50 -48q-36 36 -82.5 56.5t-98.5 20.5q-50 0 -76.5 -18.5t-26.5 -48.5q0 -29 35.5 -50t127.5 -43q114 -27 161 -59t47 -84q0 -45 -35.5 -75zM464.5 381q-31.5 21 -110.5 40q-67 16 -109 16
q-48 0 -78.5 -20.5t-30.5 -49.5q0 -27 31.5 -48t110.5 -40q65 -16 109 -16q48 0 78.5 20.5t30.5 49.5q0 27 -31.5 48z" />
    <glyph glyph-name="currency" unicode="&#xa4;" horiz-adv-x="720" 
d="M56 470h94q29 108 102.5 175t172.5 67q83 0 140 -36t101 -101l-60 -43q-40 56 -81.5 82.5t-102.5 26.5q-65 0 -116 -47t-75 -124h257v-62h-270q-4 -24 -4 -57q0 -17 2 -51h272v-63h-259q22 -81 76.5 -129.5t127.5 -48.5q56 0 97.5 29t80.5 86l57 -40
q-46 -69 -102.5 -107.5t-135.5 -38.5q-105 0 -180.5 68t-102.5 181h-91v63h81q-2 16 -2 49q0 34 4 59h-83v62z" />
    <glyph glyph-name="quotesingle" unicode="'" horiz-adv-x="245" 
d="M189 700v-5l-81 -267h-43l30 272h94z" />
    <glyph glyph-name="quotedblleft" unicode="&#x201c;" horiz-adv-x="445" 
d="M141 636q-16 -21 -14 -53h37v-105h-92v90q0 60 26 92t84 45l12 -35q-37 -13 -53 -34zM341 636q-16 -21 -14 -53h36v-105h-91v90q0 60 26 92t84 45l12 -35q-37 -13 -53 -34z" />
    <glyph glyph-name="guillemotleft" unicode="&#xab;" horiz-adv-x="550" 
d="M134 260l135 -185l-59 -34l-162 214v8l162 213l59 -33zM356 260l135 -185l-58 -34l-162 214v8l162 213l58 -33z" />
    <glyph glyph-name="guilsinglleft" unicode="&#x2039;" horiz-adv-x="328" 
d="M134 260l135 -185l-59 -34l-162 214v8l162 213l59 -33z" />
    <glyph glyph-name="guilsinglright" unicode="&#x203a;" horiz-adv-x="328" 
d="M194 258l-135 184l58 34l162 -213v-8l-162 -214l-58 33z" />
    <glyph glyph-name="fi" unicode="&#xfb01;" horiz-adv-x="631" 
d="M355 449h-163v-449h-77v449h-71v67h71v45q0 84 40.5 128.5t115.5 44.5q49 0 85 -13v-67q-46 13 -75 13q-90 0 -90 -110v-42h164v-66zM455 715h88v-85h-88v85zM461 517h76v-517h-76v517z" />
    <glyph glyph-name="fl" unicode="&#xfb02;" horiz-adv-x="631" 
d="M355 449h-163v-449h-77v449h-71v67h71v45q0 84 40.5 128.5t115.5 44.5q49 0 85 -13v-67q-46 13 -75 13q-90 0 -90 -110v-42h164v-66zM461 730h76v-730h-76v730z" />
    <glyph glyph-name="endash" unicode="&#x2013;" horiz-adv-x="528" 
d="M65 339h398v-77h-398v77z" />
    <glyph glyph-name="dagger" unicode="&#x2020;" horiz-adv-x="410" 
d="M178 238l6 282l-124 -8v55l123 -8l-9 141h62l-9 -141l123 8v-55l-124 8l6 -282h-54z" />
    <glyph glyph-name="daggerdbl" unicode="&#x2021;" horiz-adv-x="430" 
d="M246 0h-62l9 141l-123 -8v55l124 -8l-6 170l6 170l-124 -8v55l123 -8l-9 141h62l-9 -141l123 8v-55l-124 8l6 -170l-6 -170l124 8v-55l-123 8z" />
    <glyph glyph-name="periodcentered" unicode="&#xb7;" horiz-adv-x="245" 
d="M77 353h92v-105h-92v105z" />
    <glyph glyph-name="paragraph" unicode="&#xb6;" horiz-adv-x="510" 
d="M418 0h-80v264h-11q-80 0 -143.5 25.5t-99.5 74.5t-36 118q0 67 33 116.5t93 75.5t138 26h106v-700z" />
    <glyph glyph-name="bullet" unicode="&#x2022;" horiz-adv-x="478" 
d="M352.5 286.5q-17.5 -30.5 -48 -48t-65.5 -17.5t-65.5 17.5t-48 48t-17.5 65.5t17.5 65.5t48 48t65.5 17.5t65.5 -17.5t48 -48t17.5 -65.5t-17.5 -65.5z" />
    <glyph glyph-name="quotesinglbase" unicode="&#x201a;" horiz-adv-x="245" 
d="M100 -52.5q16 20.5 13 52.5h-36v105h92v-90q0 -60 -26.5 -92t-84.5 -45l-12 35q38 14 54 34.5z" />
    <glyph glyph-name="quotedblbase" unicode="&#x201e;" horiz-adv-x="445" 
d="M100 -52.5q16 20.5 13 52.5h-36v105h92v-90q0 -60 -26.5 -92t-84.5 -45l-12 35q38 14 54 34.5zM300 -52.5q16 20.5 13 52.5h-36v105h91v-90q0 -60 -26 -92t-84 -45l-12 35q38 14 54 34.5z" />
    <glyph glyph-name="quotedblright" unicode="&#x201d;" horiz-adv-x="445" 
d="M105 542.5q16 20.5 13 52.5h-36v105h92v-90q0 -60 -26.5 -92t-84.5 -45l-12 35q38 14 54 34.5zM305 542.5q16 20.5 13 52.5h-36v105h91v-90q0 -60 -26 -92t-84 -45l-12 35q38 14 54 34.5z" />
    <glyph glyph-name="guillemotright" unicode="&#xbb;" horiz-adv-x="550" 
d="M194 258l-135 184l58 34l162 -213v-8l-162 -214l-58 33zM416 258l-135 184l59 34l162 -213v-8l-162 -214l-59 33z" />
    <glyph glyph-name="ellipsis" unicode="&#x2026;" horiz-adv-x="723" 
d="M77 103h89v-103h-89v103zM317 103h89v-103h-89v103zM557 103h90v-103h-90v103z" />
    <glyph glyph-name="perthousand" unicode="&#x2030;" horiz-adv-x="1211" 
d="M349 440.5q-20 -41.5 -56.5 -66t-82.5 -24.5t-82 24.5t-56 65t-20 88.5t20 89.5t56.5 66t83.5 24.5q46 0 81.5 -24.5t55.5 -65t20 -88.5t-20 -89.5zM196 0h-72l514 700h71zM276 616.5q-27 35.5 -66 35.5q-41 0 -66 -35t-25 -87q0 -53 27 -88.5t66 -35.5q40 0 65.5 35
t25.5 87q0 53 -27 88.5zM761 82.5q-20 -41.5 -56 -66t-83 -24.5q-46 0 -81.5 24.5t-55.5 65t-20 88.5t20 89.5t56.5 66t82.5 24.5t82 -24.5t55.5 -65t19.5 -88.5t-20 -89.5zM1138 82.5q-20 -41.5 -56 -66t-83 -24.5q-46 0 -81.5 24.5t-55.5 65t-20 88.5t20 89.5t56.5 66
t82.5 24.5t82 -24.5t55.5 -65t19.5 -88.5t-20 -89.5zM688 258.5q-27 35.5 -66 35.5q-40 0 -65.5 -35t-25.5 -87q0 -53 27 -88.5t66 -35.5q41 0 66 35t25 87q0 53 -27 88.5zM1065 258.5q-27 35.5 -66 35.5q-40 0 -65.5 -35t-25.5 -87q0 -53 27 -88.5t66 -35.5q41 0 66 35
t25 87q0 53 -27 88.5z" />
    <glyph glyph-name="questiondown" unicode="&#xbf;" horiz-adv-x="537" 
d="M338 595h-92v105h92v-105zM179.5 295.5q-51.5 -37.5 -51.5 -102.5q0 -56 40 -93.5t106 -37.5q101 0 181 94l51 -49q-46 -56 -102 -86t-132 -30q-67 0 -117.5 25.5t-78.5 71t-28 102.5q0 89 57.5 140t150.5 64l9 108h51l16 -162l-5 -5q-96 -2 -147.5 -39.5z" />
    <glyph glyph-name="grave" unicode="`" 
d="M224 740l95 -145h-62l-113 108z" />
    <glyph glyph-name="acute" unicode="&#xb4;" 
d="M276 740l80 -37l-113 -108h-62z" />
    <glyph glyph-name="circumflex" unicode="&#x2c6;" 
d="M110 595l106 131h68l106 -131h-66l-75 67l-75 -67h-64z" />
    <glyph glyph-name="tilde" unicode="&#x2dc;" 
d="M377 619.5q-22 -24.5 -58 -24.5q-26 0 -76 22q-3 1 -23.5 9.5t-34.5 8.5q-19 0 -29.5 -10.5t-22.5 -38.5l-47 13q15 56 37 80.5t58 24.5q26 0 76 -22q3 -1 23.5 -9.5t34.5 -8.5q19 0 29.5 10.5t22.5 38.5l47 -13q-15 -56 -37 -80.5z" />
    <glyph glyph-name="macron" unicode="&#xaf;" 
d="M92 667h316v-67h-316v67z" />
    <glyph glyph-name="breve" unicode="&#x2d8;" 
d="M353.5 628.5q-40.5 -35.5 -103.5 -35.5t-103.5 35.5t-44.5 97.5h56q20 -69 92 -69t92 69h56q-4 -62 -44.5 -97.5z" />
    <glyph glyph-name="dotaccent" unicode="&#x2d9;" 
d="M203 691h94v-96h-94v96z" />
    <glyph glyph-name="dieresis" unicode="&#xa8;" 
d="M117 690h90v-95h-90v95zM293 690h90v-95h-90v95z" />
    <glyph glyph-name="ring" unicode="&#x2da;" 
d="M323 622.5q-31 -29.5 -73 -29.5t-73 29.5t-31 70.5t31 70.5t73 29.5t73 -29.5t31 -70.5t-31 -70.5zM294 737q-18 18 -44 18q-25 0 -43.5 -18t-18.5 -44q0 -25 18.5 -43.5t43.5 -18.5q26 0 44 18.5t18 43.5q0 26 -18 44z" />
    <glyph glyph-name="cedilla" unicode="&#xb8;" 
d="M225 -155l-75 34l90 131h61z" />
    <glyph glyph-name="hungarumlaut" unicode="&#x2dd;" 
d="M179 740l75 -37l-108 -108h-62zM343 740l75 -37l-109 -108h-61z" />
    <glyph glyph-name="ogonek" unicode="&#x2db;" 
d="M251 -41q0 -39 26.5 -59t82.5 -23v-41q-85 -4 -131 25.5t-46 82.5q0 33 14 66h60q-6 -26 -6 -51z" />
    <glyph glyph-name="caron" unicode="&#x2c7;" 
d="M390 726l-106 -131h-68l-106 131h66l75 -67l75 67h64z" />
    <glyph glyph-name="emdash" unicode="&#x2014;" horiz-adv-x="898" 
d="M65 339h768v-77h-768v77z" />
    <glyph glyph-name="AE" unicode="&#xc6;" horiz-adv-x="1045" 
d="M17 0l411 700h552v-72h-409v-239h364v-72h-364v-245h414v-72h-494v185h-282l-109 -185h-83zM491 256v374h-24l-218 -374h242z" />
    <glyph glyph-name="ordfeminine" unicode="&#xaa;" horiz-adv-x="390" 
d="M264 452q-36 -44 -96 -44q-43 0 -75 24t-32 67q0 45 33.5 69.5t89.5 24.5q40 0 80 -11v5q0 34 -20.5 52.5t-57.5 18.5q-22 0 -42 -5.5t-44 -16.5l-15 42q29 13 53 19t53 6q59 0 90.5 -29.5t31.5 -86.5v-173h-49v38zM188 555q-35 0 -55 -15t-20 -39t18.5 -37.5t45.5 -13.5
q36 0 61.5 19.5t25.5 50.5v24q-37 11 -76 11zM58 336h260v-47h-260v47z" />
    <glyph glyph-name="Lslash" unicode="&#x141;" horiz-adv-x="649" 
d="M129 301l-75 -22v73l75 23v325h78v-301l216 66v-74l-216 -65v-253h395v-73h-473v301z" />
    <glyph glyph-name="Oslash" unicode="&#xd8;" horiz-adv-x="850" 
d="M736.5 170.5q-45.5 -83.5 -127 -133t-185.5 -49.5q-64 0 -119.5 19t-99.5 55l-62 -67h-83l99 108q-44 49 -67.5 112.5t-23.5 133.5q0 97 45.5 180.5t127 133t185.5 49.5q64 0 119.5 -19t99.5 -55l62 67h83l-99 -109q44 -48 67.5 -111.5t23.5 -133.5q0 -97 -45.5 -180.5z
M424 641q-79 0 -141.5 -39t-98 -105t-35.5 -146q0 -53 16.5 -101t46.5 -87l383 417q-76 61 -171 61zM684.5 450q-16.5 48 -46.5 87l-383 -417q76 -61 171 -61q79 0 141.5 39t98 105t35.5 146q0 53 -16.5 101z" />
    <glyph glyph-name="OE" unicode="&#x152;" horiz-adv-x="1131" 
d="M247.5 45.5q-84.5 45.5 -132 125.5t-47.5 178t47.5 178.5t132 126.5t192.5 46h626v-72h-409v-239h364v-72h-364v-245h414v-72h-631q-108 0 -192.5 45.5zM440 627q-87 0 -152.5 -36t-101.5 -99t-36 -141t36 -141.5t102 -100t152 -36.5h138v554h-138z" />
    <glyph glyph-name="ordmasculine" unicode="&#xba;" horiz-adv-x="390" 
d="M322.5 482q-19.5 -34 -53 -54.5t-75.5 -20.5q-41 0 -74.5 20t-52.5 54t-19 74q0 41 19.5 75t53 54.5t75.5 20.5q41 0 74.5 -20t52.5 -54t19 -74q0 -41 -19.5 -75zM261 627.5q-27 29.5 -67 29.5t-66 -29t-26 -71t27 -72t67 -30t66 29t26 71q0 43 -27 72.5zM51 336h288v-47
h-288v47z" />
    <glyph glyph-name="ae" unicode="&#xe6;" horiz-adv-x="953" 
d="M242 -11q-52 0 -96.5 18.5t-71.5 55.5t-27 88q0 80 59.5 124t157.5 44q44 0 79 -5.5t74 -16.5v18q0 69 -38.5 105t-110.5 36q-41 0 -76 -9.5t-76 -28.5l-23 63q47 22 89 32.5t94 10.5q74 0 122.5 -28t67.5 -83q31 53 83.5 84t114.5 31q74 0 128.5 -36.5t83.5 -98.5
t29 -139q0 -6 -2 -24h-409q8 -81 59.5 -128t121.5 -47q51 0 90 18.5t73 54.5l48 -43q-41 -47 -92 -72t-121 -25q-62 0 -116 27.5t-89 76.5q-99 -103 -226 -103zM777.5 413q-42.5 50 -115.5 50q-68 0 -114.5 -49.5t-54.5 -126.5h333q-6 76 -48.5 126zM272 262
q-70 0 -108.5 -28.5t-38.5 -78.5q0 -48 36 -76t90 -28q104 0 186 92q-18 45 -21 98q-80 21 -144 21z" />
    <glyph glyph-name="dotlessi" unicode="&#x131;" horiz-adv-x="263" 
d="M93 517h77v-517h-77v517z" />
    <glyph glyph-name="lslash" unicode="&#x142;" horiz-adv-x="323" 
d="M124 0v321l-76 -24v75l76 23v335h76v-312l76 24v-75l-76 -24v-343h-76z" />
    <glyph glyph-name="oslash" unicode="&#xf8;" horiz-adv-x="646" 
d="M557.5 124q-35.5 -62 -97.5 -99t-138 -37q-90 0 -161 53l-45 -46h-77l79 85q-31 37 -47.5 82.5t-16.5 94.5q0 73 35 135t97 99t138 37q46 0 87 -14t74 -40l45 49h78l-80 -86q31 -36 48 -81.5t17 -96.5q0 -73 -35.5 -135zM322 461q-55 0 -98.5 -27t-68 -73t-24.5 -102
q0 -70 39 -123l268 283q-48 42 -116 42zM476 381l-268 -285q50 -41 116 -41q55 0 98.5 26.5t68 73t24.5 102.5q0 71 -39 124z" />
    <glyph glyph-name="oe" unicode="&#x153;" horiz-adv-x="1049" 
d="M455 26.5q-61 -38.5 -136 -38.5q-73 0 -134 36.5t-96 98t-35 134.5t35.5 135t97 99t135.5 37q75 0 135 -38t92 -101q30 64 85.5 101.5t126.5 37.5q73 0 127.5 -36.5t83 -98.5t28.5 -139q0 -15 -1 -24h-409q8 -81 59 -128t122 -47q51 0 90 19t73 54l48 -43
q-41 -47 -92 -72t-120 -25q-72 0 -131.5 37.5t-90.5 102.5q-32 -63 -93 -101.5zM873.5 413q-42.5 50 -115.5 50q-68 0 -114.5 -49.5t-54.5 -126.5h333q-6 76 -48.5 126zM486 359.5q-25 46.5 -68.5 73.5t-96.5 27q-54 0 -97 -26.5t-67 -72.5t-24 -102q0 -55 25 -101.5
t68.5 -73.5t96.5 -27q54 0 97 26.5t67 72.5t24 101q0 56 -25 102.5z" />
    <glyph glyph-name="germandbls" unicode="&#xdf;" horiz-adv-x="620" 
d="M479.5 444q-39.5 -46 -99.5 -72q80 -18 131 -62t51 -117q0 -93 -72.5 -145t-197.5 -50v62q90 2 140.5 36t50.5 97q0 59 -50.5 94t-140.5 44v57q148 55 148 163q0 53 -36.5 85.5t-94.5 32.5q-65 0 -105.5 -45.5t-40.5 -121.5v-502h-77v501q0 70 28 123.5t79 83t120 29.5
q62 0 108.5 -23.5t72 -65t25.5 -92.5q0 -66 -39.5 -112z" />
    <glyph glyph-name="NUL" horiz-adv-x="0" 
 />
    <glyph glyph-name="Eth" unicode="&#xd0;" horiz-adv-x="812" 
d="M54 388h75v312h243q108 0 192.5 -45.5t132 -125.5t47.5 -178t-47.5 -178.5t-132 -126.5t-192.5 -46h-243v316h-75v72zM418 316h-210v-243h164q87 0 152.5 36t101.5 99t36 141t-36 141.5t-102 100t-152 36.5h-164v-239h210v-72z" />
    <glyph glyph-name="eth" unicode="&#xf0;" horiz-adv-x="633" 
d="M158 599l131 61l-50 70h92l26 -39l99 48l35 -47l-102 -47l101 -149q45 -66 66.5 -122t21.5 -122q0 -71 -33 -131.5t-93.5 -96.5t-139.5 -36q-73 0 -132 35t-92.5 94t-33.5 129t32 124.5t86.5 85t118.5 30.5q49 0 86.5 -14t75.5 -41l-131 184l-128 -63zM474 334.5
q-25 41.5 -68.5 66t-96.5 24.5t-93.5 -24t-62 -65.5t-21.5 -92.5q0 -49 24 -92t66.5 -69t94.5 -26q53 0 94.5 25.5t64.5 68.5t23 94q0 49 -25 90.5z" />
    <glyph glyph-name="Scaron" unicode="&#x160;" horiz-adv-x="640" 
d="M464 893l-106 -131h-68l-106 131h66l75 -67l75 67h64zM176 466q16 -24 57 -43t117 -35q119 -26 173.5 -72.5t54.5 -126.5q0 -59 -30.5 -104.5t-85 -70t-123.5 -24.5q-83 0 -152.5 27.5t-133.5 84.5l49 58q56 -51 112.5 -75t127.5 -24q70 0 113 33.5t43 86.5
q0 35 -15.5 58.5t-54.5 42t-112 33.5q-124 27 -179.5 72.5t-55.5 130.5q0 55 29.5 99t82 68.5t118.5 24.5q75 0 133 -21t113 -65l-46 -61q-48 39 -97.5 57.5t-104.5 18.5q-67 0 -108 -32.5t-41 -81.5q0 -35 16 -59z" />
    <glyph glyph-name="scaron" unicode="&#x161;" horiz-adv-x="498" 
d="M392 726l-106 -131h-68l-106 131h66l75 -67l75 67h64zM389 31.5q-52 -41.5 -132 -41.5q-56 0 -113.5 20.5t-100.5 55.5l39 55q88 -66 179 -66q47 0 77 22.5t30 59.5v2q0 35 -32.5 54t-96.5 37q-53 15 -88 30.5t-59 43.5t-24 72v2q0 66 49.5 107t126.5 41q47 0 96.5 -15.5
t89.5 -41.5l-35 -58q-37 24 -76.5 37t-76.5 13q-45 0 -72.5 -21t-27.5 -54v-2q0 -33 32.5 -50.5t100.5 -38.5q51 -15 85.5 -31.5t57.5 -45t23 -71.5v-2q0 -72 -52 -113.5z" />
    <glyph glyph-name="Yacute" unicode="&#xdd;" horiz-adv-x="716" 
d="M424 902l80 -37l-113 -108h-62zM318 0v277l-291 423h96l236 -350l238 350h92l-291 -422v-278h-80z" />
    <glyph glyph-name="yacute" unicode="&#xfd;" horiz-adv-x="591" 
d="M362 736l80 -37l-113 -108h-62zM265 -129.5q-40 -33.5 -99 -33.5q-31 0 -57 6.5t-53 19.5l26 61q37 -19 81 -19q35 0 59 21.5t47 75.5l-235 515h85l188 -431l166 431h82l-217 -534q-33 -79 -73 -112.5z" />
    <glyph glyph-name="Thorn" unicode="&#xde;" horiz-adv-x="673" 
d="M586 231.5q-37 -52.5 -99.5 -79t-138.5 -26.5h-170v-126h-79v700h79v-120h183q79 0 138 -27t91.5 -77t32.5 -119q0 -73 -37 -125.5zM492.5 467.5q-50.5 39.5 -137.5 39.5h-177v-309h173q87 0 139.5 43t52.5 113q0 74 -50.5 113.5z" />
    <glyph glyph-name="thorn" unicode="&#xfe;" horiz-adv-x="664" 
d="M573 116q-35 -61 -91.5 -94t-120.5 -33q-122 0 -198 110v-259h-77v890h77v-317q78 115 198 115q63 0 120 -32.5t92 -93.5t35 -143t-35 -143zM504.5 363.5q-24.5 45.5 -66.5 70.5t-91 25q-48 0 -91 -25.5t-69.5 -71t-26.5 -103.5t26.5 -104t69.5 -71.5t91 -25.5
q50 0 91.5 24t66 69.5t24.5 106.5q0 60 -24.5 105.5z" />
    <glyph glyph-name="Zcaron" unicode="&#x17d;" horiz-adv-x="693" 
d="M491 893l-106 -131h-68l-106 131h66l75 -67l75 67h64zM82 700h546v-53l-454 -576h454v-71h-561v53l453 576h-438v71z" />
    <glyph glyph-name="zcaron" unicode="&#x17e;" horiz-adv-x="556" 
d="M427 726l-106 -131h-68l-106 131h66l75 -67l75 67h64zM68 517h436v-49l-344 -403h344v-65h-448v49l343 403h-331v65z" />
    <glyph glyph-name="Adieresis" unicode="&#xc4;" horiz-adv-x="790" 
d="M262 857h90v-95h-90v95zM438 857h90v-95h-90v95zM666 0l-82 185h-381l-83 -185h-81l319 705h74l319 -705h-85zM234 256h319l-159 357z" />
    <glyph glyph-name="Aring" unicode="&#xc5;" horiz-adv-x="790" 
d="M306 716q-15 23 -15 51q0 41 31 70.5t73 29.5t73 -29.5t31 -70.5q0 -28 -15 -51t-40 -36l307 -680h-85l-82 185h-381l-83 -185h-81l307 680q-25 13 -40 36zM439 811q-18 18 -44 18q-25 0 -43.5 -18t-18.5 -44q0 -25 18.5 -43.5t43.5 -18.5q26 0 44 18.5t18 43.5
q0 26 -18 44zM234 256h319l-159 357z" />
    <glyph glyph-name="Ccedilla" unicode="&#xc7;" horiz-adv-x="738" 
d="M215 52q-69 50 -108 127.5t-39 169.5q0 99 45.5 182.5t126.5 132t182 48.5q89 0 152 -28t121 -83l-54 -58q-49 46 -101 71t-119 25q-76 0 -138 -38t-97.5 -104t-35.5 -146t35.5 -146.5t97.5 -105t138 -38.5q68 0 120 25t106 76l52 -51q-57 -58 -118.5 -88.5t-145.5 -34.5
l-66 -143l-75 34l77 112q-87 11 -156 61z" />
    <glyph glyph-name="Eacute" unicode="&#xc9;" horiz-adv-x="670" 
d="M392 907l80 -37l-113 -108h-62zM178 628v-239h382v-72h-382v-245h432v-72h-511v700h506v-72h-427z" />
    <glyph glyph-name="Ntilde" unicode="&#xd1;" horiz-adv-x="790" 
d="M522 786.5q-22 -24.5 -58 -24.5q-26 0 -76 22q-3 1 -23.5 9.5t-34.5 8.5q-19 0 -29.5 -10.5t-22.5 -38.5l-47 13q15 56 37 80.5t58 24.5q26 0 76 -22q3 -1 23.5 -9.5t34.5 -8.5q19 0 29.5 10.5t22.5 38.5l47 -13q-15 -56 -37 -80.5zM691 700v-700h-63l-452 574v-574h-77
v700h74l441 -561v561h77z" />
    <glyph glyph-name="Odieresis" unicode="&#xd6;" horiz-adv-x="850" 
d="M292 857h90v-95h-90v95zM468 857h90v-95h-90v95zM736.5 170.5q-45.5 -83.5 -127 -133t-185.5 -49.5t-185 49t-126 132t-45 180t45.5 180.5t127 133t185.5 49.5t185 -49t126 -132t45 -180t-45.5 -180.5zM664.5 494.5q-35.5 66.5 -99 105.5t-141.5 39t-140.5 -38.5
t-98 -104.5t-35.5 -145t35.5 -145.5t99 -105.5t141.5 -39t140.5 38.5t98 104.5t35.5 145t-35.5 145.5z" />
    <glyph glyph-name="Udieresis" unicode="&#xdc;" horiz-adv-x="759" 
d="M246 854h90v-95h-90v95zM422 854h90v-95h-90v95zM592 69q-79 -80 -213 -80q-87 0 -152.5 35t-102 103.5t-36.5 165.5v407h79v-402q0 -113 56.5 -174.5t157.5 -61.5q99 0 155 59t56 172v407h79v-401q0 -150 -79 -230z" />
    <glyph glyph-name="aacute" unicode="&#xe1;" horiz-adv-x="579" 
d="M343 740l80 -37l-113 -108h-62zM193 446q-37 -10 -77 -28l-23 63q47 21 91 32t97 11q106 0 163 -53t57 -155v-316h-74v78q-30 -40 -77 -64.5t-110 -24.5q-50 0 -94 18.5t-71.5 55t-27.5 88.5q0 81 60 124.5t161 43.5q81 0 159 -22v18q0 69 -40 105t-114 36q-43 0 -80 -10
zM164.5 233q-39.5 -29 -39.5 -79q0 -48 37.5 -76t92.5 -28q47 0 87 18t63 50t23 72v50q-76 22 -152 22q-72 0 -111.5 -29z" />
    <glyph glyph-name="agrave" unicode="&#xe0;" horiz-adv-x="579" 
d="M228 740l95 -145h-62l-113 108zM193 446q-37 -10 -77 -28l-23 63q47 21 91 32t97 11q106 0 163 -53t57 -155v-316h-74v78q-30 -40 -77 -64.5t-110 -24.5q-50 0 -94 18.5t-71.5 55t-27.5 88.5q0 81 60 124.5t161 43.5q81 0 159 -22v18q0 69 -40 105t-114 36q-43 0 -80 -10
zM164.5 233q-39.5 -29 -39.5 -79q0 -48 37.5 -76t92.5 -28q47 0 87 18t63 50t23 72v50q-76 22 -152 22q-72 0 -111.5 -29z" />
    <glyph glyph-name="acircumflex" unicode="&#xe2;" horiz-adv-x="579" 
d="M151 595l106 131h68l106 -131h-66l-75 67l-75 -67h-64zM193 446q-37 -10 -77 -28l-23 63q47 21 91 32t97 11q106 0 163 -53t57 -155v-316h-74v78q-30 -40 -77 -64.5t-110 -24.5q-50 0 -94 18.5t-71.5 55t-27.5 88.5q0 81 60 124.5t161 43.5q81 0 159 -22v18q0 69 -40 105
t-114 36q-43 0 -80 -10zM164.5 233q-39.5 -29 -39.5 -79q0 -48 37.5 -76t92.5 -28q47 0 87 18t63 50t23 72v50q-76 22 -152 22q-72 0 -111.5 -29z" />
    <glyph glyph-name="adieresis" unicode="&#xe4;" horiz-adv-x="579" 
d="M158 690h90v-95h-90v95zM334 690h90v-95h-90v95zM193 446q-37 -10 -77 -28l-23 63q47 21 91 32t97 11q106 0 163 -53t57 -155v-316h-74v78q-30 -40 -77 -64.5t-110 -24.5q-50 0 -94 18.5t-71.5 55t-27.5 88.5q0 81 60 124.5t161 43.5q81 0 159 -22v18q0 69 -40 105
t-114 36q-43 0 -80 -10zM164.5 233q-39.5 -29 -39.5 -79q0 -48 37.5 -76t92.5 -28q47 0 87 18t63 50t23 72v50q-76 22 -152 22q-72 0 -111.5 -29z" />
    <glyph glyph-name="atilde" unicode="&#xe3;" horiz-adv-x="579" 
d="M419 619.5q-22 -24.5 -58 -24.5q-26 0 -76 22q-3 1 -23.5 9.5t-34.5 8.5q-19 0 -29.5 -10.5t-22.5 -38.5l-47 13q15 56 37 80.5t58 24.5q26 0 76 -22q3 -1 23.5 -9.5t34.5 -8.5q19 0 29.5 10.5t22.5 38.5l47 -13q-15 -56 -37 -80.5zM193 446q-37 -10 -77 -28l-23 63
q47 21 91 32t97 11q106 0 163 -53t57 -155v-316h-74v78q-30 -40 -77 -64.5t-110 -24.5q-50 0 -94 18.5t-71.5 55t-27.5 88.5q0 81 60 124.5t161 43.5q81 0 159 -22v18q0 69 -40 105t-114 36q-43 0 -80 -10zM164.5 233q-39.5 -29 -39.5 -79q0 -48 37.5 -76t92.5 -28
q47 0 87 18t63 50t23 72v50q-76 22 -152 22q-72 0 -111.5 -29z" />
    <glyph glyph-name="aring" unicode="&#xe5;" horiz-adv-x="579" 
d="M364 622.5q-31 -29.5 -73 -29.5t-73 29.5t-31 70.5t31 70.5t73 29.5t73 -29.5t31 -70.5t-31 -70.5zM335 737q-18 18 -44 18q-25 0 -43.5 -18t-18.5 -44q0 -25 18.5 -43.5t43.5 -18.5q26 0 44 18.5t18 43.5q0 26 -18 44zM193 446q-37 -10 -77 -28l-23 63q47 21 91 32
t97 11q106 0 163 -53t57 -155v-316h-74v78q-30 -40 -77 -64.5t-110 -24.5q-50 0 -94 18.5t-71.5 55t-27.5 88.5q0 81 60 124.5t161 43.5q81 0 159 -22v18q0 69 -40 105t-114 36q-43 0 -80 -10zM164.5 233q-39.5 -29 -39.5 -79q0 -48 37.5 -76t92.5 -28q47 0 87 18t63 50
t23 72v50q-76 22 -152 22q-72 0 -111.5 -29z" />
    <glyph glyph-name="ccedilla" unicode="&#xe7;" horiz-adv-x="571" 
d="M159.5 41.5q-49.5 37.5 -77.5 94t-28 121.5q0 73 35 135t95.5 99t134.5 37q68 0 117 -24.5t90 -67.5l-51 -54q-36 37 -72.5 57.5t-84.5 20.5q-52 0 -94 -27t-66.5 -73t-24.5 -101q0 -56 25 -102t68.5 -73t96.5 -27q86 0 158 77l49 -46q-41 -46 -87.5 -71t-108.5 -29
l-66 -143l-75 34l78 114q-62 11 -111.5 48.5z" />
    <glyph glyph-name="eacute" unicode="&#xe9;" horiz-adv-x="592" 
d="M349 740l80 -37l-113 -108h-62zM191.5 102q51.5 -47 122.5 -47q51 0 90 19t73 54l48 -43q-42 -47 -93 -72t-120 -25q-71 0 -130 34t-93.5 95.5t-34.5 140.5q0 74 32 136t89 98t127 36q74 0 129 -36t83.5 -98.5t28.5 -139.5q0 -15 -1 -24h-410q8 -81 59.5 -128zM416 413
q-43 50 -116 50q-67 0 -113.5 -50t-54.5 -126h333q-6 76 -49 126z" />
    <glyph glyph-name="egrave" unicode="&#xe8;" horiz-adv-x="592" 
d="M243 740l95 -145h-62l-113 108zM191.5 102q51.5 -47 122.5 -47q51 0 90 19t73 54l48 -43q-42 -47 -93 -72t-120 -25q-71 0 -130 34t-93.5 95.5t-34.5 140.5q0 74 32 136t89 98t127 36q74 0 129 -36t83.5 -98.5t28.5 -139.5q0 -15 -1 -24h-410q8 -81 59.5 -128zM416 413
q-43 50 -116 50q-67 0 -113.5 -50t-54.5 -126h333q-6 76 -49 126z" />
    <glyph glyph-name="ecircumflex" unicode="&#xea;" horiz-adv-x="592" 
d="M159 595l106 131h68l106 -131h-66l-75 67l-75 -67h-64zM191.5 102q51.5 -47 122.5 -47q51 0 90 19t73 54l48 -43q-42 -47 -93 -72t-120 -25q-71 0 -130 34t-93.5 95.5t-34.5 140.5q0 74 32 136t89 98t127 36q74 0 129 -36t83.5 -98.5t28.5 -139.5q0 -15 -1 -24h-410
q8 -81 59.5 -128zM416 413q-43 50 -116 50q-67 0 -113.5 -50t-54.5 -126h333q-6 76 -49 126z" />
    <glyph glyph-name="edieresis" unicode="&#xeb;" horiz-adv-x="592" 
d="M166 690h90v-95h-90v95zM342 690h90v-95h-90v95zM191.5 102q51.5 -47 122.5 -47q51 0 90 19t73 54l48 -43q-42 -47 -93 -72t-120 -25q-71 0 -130 34t-93.5 95.5t-34.5 140.5q0 74 32 136t89 98t127 36q74 0 129 -36t83.5 -98.5t28.5 -139.5q0 -15 -1 -24h-410
q8 -81 59.5 -128zM416 413q-43 50 -116 50q-67 0 -113.5 -50t-54.5 -126h333q-6 76 -49 126z" />
    <glyph glyph-name="iacute" unicode="&#xed;" horiz-adv-x="263" 
d="M195 740l80 -37l-113 -108h-62zM93 517h77v-517h-77v517z" />
    <glyph glyph-name="igrave" unicode="&#xec;" horiz-adv-x="263" 
d="M69 740l95 -145h-62l-113 108zM93 517h77v-517h-77v517z" />
    <glyph glyph-name="icircumflex" unicode="&#xee;" horiz-adv-x="263" 
d="M-9 595l106 131h68l106 -131h-66l-75 67l-75 -67h-64zM93 517h77v-517h-77v517z" />
    <glyph glyph-name="idieresis" unicode="&#xef;" horiz-adv-x="263" 
d="M-2 690h90v-95h-90v95zM174 690h90v-95h-90v95zM93 517h77v-517h-77v517z" />
    <glyph glyph-name="ntilde" unicode="&#xf1;" horiz-adv-x="616" 
d="M439 619.5q-22 -24.5 -58 -24.5q-26 0 -76 22q-3 1 -23.5 9.5t-34.5 8.5q-19 0 -29.5 -10.5t-22.5 -38.5l-47 13q15 56 37 80.5t58 24.5q26 0 76 -22q3 -1 23.5 -9.5t34.5 -8.5q19 0 29.5 10.5t22.5 38.5l47 -13q-15 -56 -37 -80.5zM86 0v517h77v-90q61 101 177 101
q92 0 145 -56.5t53 -150.5v-321h-77v302q0 73 -37.5 114.5t-105.5 41.5q-67 0 -111 -45t-44 -117v-296h-77z" />
    <glyph glyph-name="oacute" unicode="&#xf3;" horiz-adv-x="646" 
d="M388 740l80 -37l-113 -108h-62zM557.5 124q-35.5 -62 -97.5 -99t-138 -37t-137 36.5t-96 98t-35 134.5t35 135t97 99t138 37t137.5 -36.5t96.5 -98t35 -134.5t-35.5 -135zM488.5 359.5q-25.5 46.5 -69 73.5t-97.5 27q-55 0 -98 -26.5t-67 -72.5t-24 -102q0 -55 25 -101.5
t69 -73.5t97 -27q55 0 98 26.5t67.5 72.5t24.5 101q0 56 -25.5 102.5z" />
    <glyph glyph-name="ograve" unicode="&#xf2;" horiz-adv-x="646" 
d="M259 740l95 -145h-62l-113 108zM557.5 124q-35.5 -62 -97.5 -99t-138 -37t-137 36.5t-96 98t-35 134.5t35 135t97 99t138 37t137.5 -36.5t96.5 -98t35 -134.5t-35.5 -135zM488.5 359.5q-25.5 46.5 -69 73.5t-97.5 27q-55 0 -98 -26.5t-67 -72.5t-24 -102q0 -55 25 -101.5
t69 -73.5t97 -27q55 0 98 26.5t67.5 72.5t24.5 101q0 56 -25.5 102.5z" />
    <glyph glyph-name="ocircumflex" unicode="&#xf4;" horiz-adv-x="646" 
d="M183 595l106 131h68l106 -131h-66l-75 67l-75 -67h-64zM557.5 124q-35.5 -62 -97.5 -99t-138 -37t-137 36.5t-96 98t-35 134.5t35 135t97 99t138 37t137.5 -36.5t96.5 -98t35 -134.5t-35.5 -135zM488.5 359.5q-25.5 46.5 -69 73.5t-97.5 27q-55 0 -98 -26.5t-67 -72.5
t-24 -102q0 -55 25 -101.5t69 -73.5t97 -27q55 0 98 26.5t67.5 72.5t24.5 101q0 56 -25.5 102.5z" />
    <glyph glyph-name="odieresis" unicode="&#xf6;" horiz-adv-x="646" 
d="M190 690h90v-95h-90v95zM366 690h90v-95h-90v95zM557.5 124q-35.5 -62 -97.5 -99t-138 -37t-137 36.5t-96 98t-35 134.5t35 135t97 99t138 37t137.5 -36.5t96.5 -98t35 -134.5t-35.5 -135zM488.5 359.5q-25.5 46.5 -69 73.5t-97.5 27q-55 0 -98 -26.5t-67 -72.5t-24 -102
q0 -55 25 -101.5t69 -73.5t97 -27q55 0 98 26.5t67.5 72.5t24.5 101q0 56 -25.5 102.5z" />
    <glyph glyph-name="otilde" unicode="&#xf5;" horiz-adv-x="646" 
d="M450 619.5q-22 -24.5 -58 -24.5q-26 0 -76 22q-3 1 -23.5 9.5t-34.5 8.5q-19 0 -29.5 -10.5t-22.5 -38.5l-47 13q15 56 37 80.5t58 24.5q26 0 76 -22q3 -1 23.5 -9.5t34.5 -8.5q19 0 29.5 10.5t22.5 38.5l47 -13q-15 -56 -37 -80.5zM557.5 124q-35.5 -62 -97.5 -99
t-138 -37t-137 36.5t-96 98t-35 134.5t35 135t97 99t138 37t137.5 -36.5t96.5 -98t35 -134.5t-35.5 -135zM488.5 359.5q-25.5 46.5 -69 73.5t-97.5 27q-55 0 -98 -26.5t-67 -72.5t-24 -102q0 -55 25 -101.5t69 -73.5t97 -27q55 0 98 26.5t67.5 72.5t24.5 101
q0 56 -25.5 102.5z" />
    <glyph glyph-name="uacute" unicode="&#xfa;" horiz-adv-x="616" 
d="M361 736l80 -37l-113 -108h-62zM529 517v-517h-76v90q-63 -101 -177 -101q-92 0 -145 56.5t-53 150.5v321h77v-302q0 -73 37.5 -114.5t105.5 -41.5q44 0 79 20.5t55.5 57t20.5 84.5v296h76z" />
    <glyph glyph-name="ugrave" unicode="&#xf9;" horiz-adv-x="616" 
d="M251 736l95 -145h-62l-113 108zM529 517v-517h-76v90q-63 -101 -177 -101q-92 0 -145 56.5t-53 150.5v321h77v-302q0 -73 37.5 -114.5t105.5 -41.5q44 0 79 20.5t55.5 57t20.5 84.5v296h76z" />
    <glyph glyph-name="ucircumflex" unicode="&#xfb;" horiz-adv-x="616" 
d="M169 595l106 131h68l106 -131h-66l-75 67l-75 -67h-64zM529 517v-517h-76v90q-63 -101 -177 -101q-92 0 -145 56.5t-53 150.5v321h77v-302q0 -73 37.5 -114.5t105.5 -41.5q44 0 79 20.5t55.5 57t20.5 84.5v296h76z" />
    <glyph glyph-name="udieresis" unicode="&#xfc;" horiz-adv-x="616" 
d="M176 690h90v-95h-90v95zM352 690h90v-95h-90v95zM529 517v-517h-76v90q-63 -101 -177 -101q-92 0 -145 56.5t-53 150.5v321h77v-302q0 -73 37.5 -114.5t105.5 -41.5q44 0 79 20.5t55.5 57t20.5 84.5v296h76z" />
    <glyph glyph-name="degree" unicode="&#xb0;" horiz-adv-x="458" 
d="M364 477.5q-22 -35.5 -58.5 -56.5t-76.5 -21t-76.5 21t-58.5 56.5t-22 75.5t22 75.5t58.5 56.5t76.5 21t76.5 -21t58.5 -56.5t22 -75.5t-22 -75.5zM299.5 624q-28.5 30 -70.5 30t-70.5 -30t-28.5 -71t28.5 -71t70.5 -30t70.5 30t28.5 71t-28.5 71z" />
    <glyph glyph-name="registered" unicode="&#xae;" horiz-adv-x="830" 
d="M728.5 169.5q-48.5 -83.5 -131.5 -132.5t-183 -49t-182.5 48.5t-130.5 131.5t-48 181t48.5 181.5t131.5 132.5t183 49t182.5 -48.5t130.5 -131.5t48 -181t-48.5 -181.5zM701 516.5q-43 75.5 -118 120t-167 44.5t-167.5 -45t-119 -121t-43.5 -166t43 -165.5t118 -120
t167 -44.5t167.5 45t119 121t43.5 166t-43 165.5zM553 362q-26 -28 -70 -38l115 -149h-68l-107 140h-95v-140h-55v371h166q62 0 101 -30.5t39 -81.5q0 -44 -26 -72zM499.5 479q-22.5 17 -62.5 17h-109v-132h106q40 0 64 17.5t24 49.5q0 31 -22.5 48z" />
    <glyph glyph-name="copyright" unicode="&#xa9;" horiz-adv-x="830" 
d="M728.5 169.5q-48.5 -83.5 -131.5 -132.5t-183 -49t-182.5 48.5t-130.5 131.5t-48 181t48.5 181.5t131.5 132.5t183 49t182.5 -48.5t130.5 -131.5t48 -181t-48.5 -181.5zM701 516.5q-43 75.5 -118 120t-167 44.5t-167.5 -45t-119 -121t-43.5 -166t43 -165.5t118 -120
t167 -44.5t167.5 45t119 121t43.5 166t-43 165.5zM500.5 179.5q-34.5 -16.5 -81.5 -16.5q-52 0 -94.5 26t-67 70t-24.5 96t24.5 96t67.5 70t96 26q47 0 80 -15.5t64 -44.5l-37 -40q-52 50 -108 50q-57 0 -94 -41t-37 -100q0 -38 17.5 -71t48 -52t66.5 -19q33 0 58 12.5
t52 37.5l36 -35q-32 -33 -66.5 -49.5z" />
    <glyph glyph-name="trademark" unicode="&#x2122;" horiz-adv-x="690" 
d="M125 392v266h-99v42h242v-42h-99v-266h-44zM489 461l-109 167v-236h-44v308h47l110 -169l109 169h46v-308h-43v236l-110 -167h-6z" />
    <glyph glyph-name="plusminus" unicode="&#xb1;" horiz-adv-x="604" 
d="M516 87.5q-30 -46.5 -85 -73t-125 -26.5q-81 0 -149 34t-114 92l58 50q83 -104 207 -104q70 0 114 36t44 95q0 60 -49.5 94t-137.5 34h-72v68h74q73 0 119.5 35t46.5 95q0 54 -41.5 88.5t-108.5 34.5q-57 0 -100.5 -25t-80.5 -75l-58 42q45 63 103 96.5t138 33.5
q66 0 118 -24t81 -67t29 -97q0 -64 -34 -104t-88 -61q65 -21 103 -62.5t38 -105.5q0 -57 -30 -103.5z" />
    <glyph glyph-name="uni00B5" unicode="&#xb5;" horiz-adv-x="850" 
d="M748 194q-34 -74 -95 -124l172 -165v-6h-116l-132 123q-70 -34 -153 -34q-104 0 -185 49t-126 132t-45 180t45.5 180.5t127 133t185.5 49.5t185 -49t126 -132t45 -180q0 -83 -34 -157zM664.5 494.5q-35.5 66.5 -99 105.5t-141.5 39t-140.5 -38.5t-98 -104.5t-35.5 -145
t35.5 -145.5t99 -105.5t141.5 -39t140.5 38.5t98 104.5t35.5 145t-35.5 145.5z" />
    <glyph glyph-name="pi" unicode="&#x3c0;" horiz-adv-x="830" 
d="M728.5 169.5q-48.5 -83.5 -131.5 -132.5t-183 -49t-182.5 48.5t-130.5 131.5t-48 181t48.5 181.5t131.5 132.5t183 49t182.5 -48.5t130.5 -131.5t48 -181t-48.5 -181.5zM701 516.5q-43 75.5 -118 120t-167 44.5t-167.5 -45t-119 -121t-43.5 -166t43 -165.5t118 -120
t167 -44.5t167.5 45t119 121t43.5 166t-43 165.5zM538.5 329.5q-43.5 -32.5 -107.5 -32.5h-83v-125h-56v371h146q66 0 105 -32t39 -89q0 -60 -43.5 -92.5zM501.5 475q-24.5 18 -68.5 18h-85v-146h84q43 0 68.5 19.5t25.5 54.5q0 36 -24.5 54z" />
    <glyph glyph-name="uni03A9" unicode="&#x3a9;" horiz-adv-x="735" 
d="M355 449h-163v-449h-77v449h-71v67h71v45q0 84 40.5 128.5t115.5 44.5q49 0 85 -13v-67q-46 13 -75 13q-90 0 -90 -110v-42h164v-66zM722 449h-163v-449h-76v449h-71v67h71v45q0 84 40 128.5t115 44.5q50 0 85 -13v-67q-44 13 -74 13q-46 0 -68 -27t-22 -83v-42h163v-66z
" />
    <glyph glyph-name="radical" unicode="&#x221a;" horiz-adv-x="998" 
d="M355 449h-163v-449h-77v449h-71v67h71v45q0 84 40.5 128.5t115.5 44.5q49 0 85 -13v-67q-46 13 -75 13q-90 0 -90 -110v-42h164v-66zM722 449h-163v-449h-76v449h-71v67h71v45q0 84 40 128.5t115 44.5q50 0 85 -13v-67q-44 13 -74 13q-46 0 -68 -27t-22 -83v-42h163v-66z
M828 730h77v-730h-77v730z" />
    <glyph glyph-name="approxequal" unicode="&#x2248;" horiz-adv-x="998" 
d="M355 449h-163v-449h-77v449h-71v67h71v45q0 84 40.5 128.5t115.5 44.5q49 0 85 -13v-67q-46 13 -75 13q-90 0 -90 -110v-42h164v-66zM722 449h-163v-449h-76v449h-71v67h71v45q0 84 40 128.5t115 44.5q50 0 85 -13v-67q-44 13 -74 13q-46 0 -68 -27t-22 -83v-42h163v-66z
M823 715h87v-85h-87v85zM828 517h77v-517h-77v517z" />
    <glyph glyph-name="uni00A0" unicode="&#xa0;" horiz-adv-x="300" 
 />
    <glyph glyph-name="Agrave" unicode="&#xc0;" horiz-adv-x="790" 
d="M330 907l95 -145h-62l-113 108zM666 0l-82 185h-381l-83 -185h-81l319 705h74l319 -705h-85zM234 256h319l-159 357z" />
    <glyph glyph-name="Atilde" unicode="&#xc3;" horiz-adv-x="790" 
d="M522 786.5q-22 -24.5 -58 -24.5q-26 0 -76 22q-3 1 -23.5 9.5t-34.5 8.5q-19 0 -29.5 -10.5t-22.5 -38.5l-47 13q15 56 37 80.5t58 24.5q26 0 76 -22q3 -1 23.5 -9.5t34.5 -8.5q19 0 29.5 10.5t22.5 38.5l47 -13q-15 -56 -37 -80.5zM666 0l-82 185h-381l-83 -185h-81
l319 705h74l319 -705h-85zM234 256h319l-159 357z" />
    <glyph glyph-name="Otilde" unicode="&#xd5;" horiz-adv-x="850" 
d="M552 786.5q-22 -24.5 -58 -24.5q-26 0 -76 22q-3 1 -23.5 9.5t-34.5 8.5q-19 0 -29.5 -10.5t-22.5 -38.5l-47 13q15 56 37 80.5t58 24.5q26 0 76 -22q3 -1 23.5 -9.5t34.5 -8.5q19 0 29.5 10.5t22.5 38.5l47 -13q-15 -56 -37 -80.5zM736.5 170.5q-45.5 -83.5 -127 -133
t-185.5 -49.5t-185 49t-126 132t-45 180t45.5 180.5t127 133t185.5 49.5t185 -49t126 -132t45 -180t-45.5 -180.5zM664.5 494.5q-35.5 66.5 -99 105.5t-141.5 39t-140.5 -38.5t-98 -104.5t-35.5 -145t35.5 -145.5t99 -105.5t141.5 -39t140.5 38.5t98 104.5t35.5 145
t-35.5 145.5z" />
    <glyph glyph-name="ydieresis" unicode="&#xff;" horiz-adv-x="591" 
d="M163 690h90v-95h-90v95zM339 690h90v-95h-90v95zM265 -129.5q-40 -33.5 -99 -33.5q-31 0 -57 6.5t-53 19.5l26 61q37 -19 81 -19q35 0 59 21.5t47 75.5l-235 515h85l188 -431l166 431h82l-217 -534q-33 -79 -73 -112.5z" />
    <glyph glyph-name="Ydieresis" unicode="&#x178;" horiz-adv-x="716" 
d="M225 854h90v-95h-90v95zM401 854h90v-95h-90v95zM318 0v277l-291 423h96l236 -350l238 350h92l-291 -422v-278h-80z" />
    <glyph glyph-name="Acircumflex" unicode="&#xc2;" horiz-adv-x="790" 
d="M255 759l106 131h68l106 -131h-66l-75 67l-75 -67h-64zM666 0l-82 185h-381l-83 -185h-81l319 705h74l319 -705h-85zM234 256h319l-159 357z" />
    <glyph glyph-name="Ecircumflex" unicode="&#xca;" horiz-adv-x="670" 
d="M208 762l106 131h68l106 -131h-66l-75 67l-75 -67h-64zM178 628v-239h382v-72h-382v-245h432v-72h-511v700h506v-72h-427z" />
    <glyph glyph-name="Aacute" unicode="&#xc1;" horiz-adv-x="790" 
d="M460 907l80 -37l-113 -108h-62zM666 0l-82 185h-381l-83 -185h-81l319 705h74l319 -705h-85zM234 256h319l-159 357z" />
    <glyph glyph-name="Edieresis" unicode="&#xcb;" horiz-adv-x="670" 
d="M215 857h90v-95h-90v95zM391 857h90v-95h-90v95zM178 628v-239h382v-72h-382v-245h432v-72h-511v700h506v-72h-427z" />
    <glyph glyph-name="Egrave" unicode="&#xc8;" horiz-adv-x="670" 
d="M307 907l95 -145h-62l-113 108zM178 628v-239h382v-72h-382v-245h432v-72h-511v700h506v-72h-427z" />
    <glyph glyph-name="Iacute" unicode="&#xcd;" horiz-adv-x="291" 
d="M209 907l80 -37l-113 -108h-62zM185 0h-79v700h79v-700z" />
    <glyph glyph-name="Icircumflex" unicode="&#xce;" horiz-adv-x="291" 
d="M6 762l106 131h68l106 -131h-66l-75 67l-75 -67h-64zM185 0h-79v700h79v-700z" />
    <glyph glyph-name="Idieresis" unicode="&#xcf;" horiz-adv-x="291" 
d="M13 857h90v-95h-90v95zM189 857h90v-95h-90v95zM185 0h-79v700h79v-700z" />
    <glyph glyph-name="Igrave" unicode="&#xcc;" horiz-adv-x="291" 
d="M82 907l95 -145h-62l-113 108zM185 0h-79v700h79v-700z" />
    <glyph glyph-name="Oacute" unicode="&#xd3;" horiz-adv-x="850" 
d="M494 907l80 -37l-113 -108h-62zM736.5 170.5q-45.5 -83.5 -127 -133t-185.5 -49.5t-185 49t-126 132t-45 180t45.5 180.5t127 133t185.5 49.5t185 -49t126 -132t45 -180t-45.5 -180.5zM664.5 494.5q-35.5 66.5 -99 105.5t-141.5 39t-140.5 -38.5t-98 -104.5t-35.5 -145
t35.5 -145.5t99 -105.5t141.5 -39t140.5 38.5t98 104.5t35.5 145t-35.5 145.5z" />
    <glyph glyph-name="Ocircumflex" unicode="&#xd4;" horiz-adv-x="850" 
d="M285 762l106 131h68l106 -131h-66l-75 67l-75 -67h-64zM736.5 170.5q-45.5 -83.5 -127 -133t-185.5 -49.5t-185 49t-126 132t-45 180t45.5 180.5t127 133t185.5 49.5t185 -49t126 -132t45 -180t-45.5 -180.5zM664.5 494.5q-35.5 66.5 -99 105.5t-141.5 39t-140.5 -38.5
t-98 -104.5t-35.5 -145t35.5 -145.5t99 -105.5t141.5 -39t140.5 38.5t98 104.5t35.5 145t-35.5 145.5z" />
    <glyph glyph-name="uniF8FF" unicode="&#xf8ff;" horiz-adv-x="967" 
d="M101 750h767v-750h-767v750zM559 690.5q0 3.5 -1 7.5q-2 -1 -17 -1t-18 1l-1 -12h2q1 1 3.5 5t6.5 4q3 0 3 -3v-23q0 -4 -2 -4.5t-3 -0.5v-2h17v2q-1 0 -3 0.5t-2 4.5v23q0 3 3 3q4 0 7 -4t3 -5h2v4.5zM436 664.5q-2 0.5 -2 4.5v21q0 4 2 4.5t3 0.5v2h-29l-2 -10l2 -1
q0 1 2.5 4.5t6.5 3.5h4q4 0 4 -3v-10h-4q-4 0 -5 2t-1 3h-2v-13h2q0 1 1 3.5t5 2.5h4v-11q0 -3 -4 -3h-4q-4 0 -7 4t-3 5l-2 -1l2 -11h30v2q-1 0 -3 0.5zM500.5 664.5q-2.5 0.5 -2.5 4.5v21q0 4 2.5 4.5t3.5 0.5v2h-18v-2q1 0 3 -0.5t2 -4.5v-9h-17v9q0 4 2 4.5t3 0.5v2h-17
v-2q1 0 3 -0.5t2 -4.5v-21q0 -3 -2 -4t-3 -1v-2h17v2q-1 0 -3 1t-2 4v10h17v-10q0 -4 -2 -4.5t-3 -0.5v-2h18v2q-1 0 -3.5 0.5zM142 624v-6h685v6h-685zM281 554q5 3 5 9q0 5 -5.5 10t-15.5 5q-6 0 -9.5 -3t-3.5 -8q0 -6 5 -6q4 0 4 3q0 2 -1.5 3.5t-1.5 2.5q0 5 7 5
q10 0 10 -12q0 -4 -2 -6h-5q-11 0 -11 -6q0 -2 2.5 -4t5.5 -2q6 0 11 5q6 -4 6 -15q0 -14 -12 -14q-5 0 -8.5 2.5t-3.5 6.5q0 3 3 3q1 0 2 -1t3 -1q4 0 4 5t-7 5q-4 0 -6.5 -3t-2.5 -7q0 -5 4.5 -9t11.5 -4q12 0 18.5 5.5t6.5 13.5q0 12 -14 17zM396.5 526.5
q-3.5 2.5 -9.5 3.5q-4 2 -5.5 16.5t-5.5 23t-18 8.5q-5 0 -9 -3.5t-4 -6.5q0 -5 5 -5q3 0 3.5 1.5t0.5 4.5q0 6 5 6q6 0 8 -10.5t4 -19.5t9 -15q-8 0 -14 -6.5t-9 -6.5q-5 0 -5 4q0 2 1 3t1 2q0 5 -5 5t-5 -7q0 -4 5 -8t10 -4q10 0 15 6.5t10 6.5q4 -7 12 -7q4 0 4 3
t-3.5 5.5zM575 554q5 3 5 9q0 5 -5.5 10t-15.5 5q-6 0 -9.5 -3t-3.5 -8q0 -6 5 -6q4 0 4 3q0 2 -1.5 3.5t-1.5 2.5q0 5 7 5q10 0 10 -12q0 -4 -2 -6h-5q-11 0 -11 -6q0 -2 2.5 -4t5.5 -2q6 0 11 5q6 -4 6 -15q0 -14 -12 -14q-5 0 -8.5 2.5t-3.5 6.5q0 3 3 3q1 0 2 -1t3 -1
q4 0 4 5t-7 5q-4 0 -6.5 -3t-2.5 -7q0 -5 4.5 -9t11.5 -4q12 0 18.5 5.5t6.5 13.5q0 12 -14 17zM684.5 566.5q-11.5 11.5 -25.5 11.5q-8 0 -15.5 -5.5t-7.5 -16.5q0 -15 11.5 -26.5t25.5 -11.5q8 0 15.5 5.5t7.5 16.5q0 15 -11.5 26.5zM197 523q-4 1 -5 7l-7 35v2q0 4 3 5
t4 1l-1 3h-27q-20 0 -20 -15q0 -6 5.5 -10t13.5 -5l-9 -16q-3 -6 -7.5 -7t-6.5 -1l1 -3h19l12 23q2 3 5 3l3 -15v-2q0 -4 -3 -5t-4 -1l1 -3h29l-1 3q-1 0 -5 1zM492 523q-4 1 -5 7l-7 35v2q0 4 3 5t4 1l-1 3h-45q1 -4 0.5 -9.5t-0.5 -7.5h4q0 4 2 8.5t11 4.5h4q5 0 6 -6
l3 -16h-4q-6 0 -9 4t-3 5h-3l5 -23h3v1q0 10 8 10h4l3 -17v-2q0 -4 -3 -5t-4 -1l1 -3h29l-1 3q-1 0 -5 1zM815 523q-4 1 -5 7l-7 35v2q0 4 3 5t4 1l-1 3h-28l1 -3q1 0 4.5 -1t4.5 -7l3 -15h-24l-3 15v2q0 4 3 5t4 1l-1 3h-29l1 -3q1 0 5 -1t5 -7l7 -35v-2q0 -4 -3 -5t-4 -1
l1 -3h29l-1 3q-1 0 -5 1t-5 7l-3 16h24l3 -16v-2q0 -4 -3 -5t-4 -1l1 -3h29l-1 3q-1 0 -5 1zM673 522q-9 0 -17 11.5t-8 26.5q0 14 11 14q9 0 17 -12t8 -27q0 -13 -11 -13zM160 553q-4 5 -4 10q0 9 8 9t9 -5l3 -19h-5q-7 0 -11 5zM265 549q-4 0 -4 2q0 3 4 3q5 0 7 -1
q-3 -4 -7 -4zM559 549q-4 0 -4 2q0 3 4 3q5 0 7 -1q-3 -4 -7 -4zM142 481v-6h685v6h-685zM269 341v65h14v34h-141v-62h41v28h33v-20h-24v-24h24v-21h-33v28h-41v-61h141v33h-14zM444 341v65h14v34h-96q-21 0 -34 -11.5t-13 -28.5q0 -18 13 -29t34 -11h30v-19h-15v-33h81v33
h-14zM567 440v-34h11l-15 -23l-15 23h10v34h-62v-34h12l37 -46v-19h-14v-33h81v33h-15v20l37 45h14v34h-81zM680 440v-62h36v28h11v-65h-14v-33h81v33h-14v65h11v-28h36v62h-147zM368 395q0 11 13 11h11v-22h-11q-13 0 -13 11zM142 277v-6h685v6h-685zM195.5 227
q-3.5 3 -10.5 3q-15 0 -14 -23q-7 23 -21 23q-5 0 -8.5 -3t-3.5 -9l3 -1q0 6 8 6q16 0 24 -33q1 -3 1 -7q0 -6 -3 -7t-4 -1l1 -4h28l-1 4h-1q-7 0 -9 9q-5 17 -5 25q0 13 9 13q5 0 12 -7l2 2q-4 7 -7.5 10zM716.5 218.5q-11.5 11.5 -25.5 11.5q-8 0 -15.5 -5.5t-7.5 -16.5
q0 -15 11.5 -26.5t25.5 -11.5q8 0 15.5 5.5t7.5 16.5q0 15 -11.5 26.5zM301 175q-4 1 -5 7l-7 35v2q0 4 3 5t4 1l-1 3h-27q-20 0 -20 -15q0 -6 5.5 -10t13.5 -5l-9 -16q-3 -6 -7.5 -7t-6.5 -1l1 -3h19l12 23q2 3 5 3l3 -15v-2q0 -4 -3 -5t-4 -1l1 -3h29l-1 3q-1 0 -5 1z
M412 175q-7 0 -9 9l-8 31l-1 4q0 5 9 6l-1 3h-30q-10 0 -17.5 -5.5t-7.5 -16.5q0 -15 11 -25t24 -10h32l-1 4h-1zM518 176q-3 2 -5 8l-7 32v2q0 5 3.5 6t4.5 1l-1 3h-14l-29 -42l-5 30v2q0 4 3 5.5t4 1.5l-1 3h-21l1 -3q1 0 4.5 -1.5t4.5 -7.5l8 -45l3 -1l30 44l6 -30v-3
q0 -5 -2.5 -6t-3.5 -1l1 -3h21l-1 3q-1 0 -4 2zM591 228l1 -3q1 0 5 -1.5t5 -7.5l5 -21q2 -8 2 -11q0 -9 -13 -9q-14 0 -20 22l-4 19v3q0 5 3 5.5t4 0.5v3h-24l1 -3q1 0 5.5 -1.5t5.5 -7.5l4 -19q2 -10 9 -18.5t19 -8.5q20 0 20 15q0 6 -1 9l-5 22l-1 3q0 5 4 5.5t5 0.5
l-1 3h-29zM817 175q-4 1 -5 7l-7 35v2q0 4 3 5t4 1l-1 3h-45q1 -4 0.5 -9.5t-0.5 -7.5h4q0 4 2 8.5t11 4.5h4q5 0 6 -6l3 -16h-4q-6 0 -9 4t-3 5h-3l5 -23h3v1q0 10 8 10h4l3 -17v-2q0 -4 -3 -5t-4 -1l1 -3h29l-1 3q-1 0 -5 1zM705 174q-9 0 -17 11.5t-8 26.5q0 14 11 14
q9 0 17 -12t8 -27q0 -13 -11 -13zM264 205q-4 5 -4 10q0 9 8 9t9 -5l3 -19h-5q-7 0 -11 5zM389 175h-5q-11 0 -18.5 10t-7.5 22q0 17 14 17h6q2 0 3.5 -1.5t2.5 -5.5l9 -35q0 -7 -4 -7zM142 133v-6h685v6h-685zM419.5 77q-5.5 5 -14.5 5t-14.5 -5t-5.5 -13t5.5 -13.5
t14.5 -5.5t14.5 5.5t5.5 13.5t-5.5 13zM305.5 49.5q-2.5 1.5 -2.5 4.5v20q0 3 2.5 4t3.5 1v2h-18v-2q1 0 3.5 -1t2.5 -4v-9q-2 0 -4 2l-8 8q-2 2 -1 3t2 1v2h-14v-2q1 0 3.5 -1t4.5 -3l10 -9l-13 -13l-7 -5v-2h17v2q-1 0 -2.5 1t0.5 4l8 8q2 2 4 2v-9q0 -4 -2.5 -5t-3.5 -1
v-2h18v2q-1 0 -3.5 1.5zM361 49q-2 1 -2 4v20q0 4 2 5t3 1v2h-18q-6 0 -9.5 -2.5t-3.5 -6.5q0 -5 9 -9l-7 -10q-2 -3 -4.5 -4t-3.5 -1v-2h11l7 12q2 2 3.5 3t3.5 1v-9q0 -3 -2 -4t-3 -1v-2h17v2q-1 0 -3 1zM465 81v-2q1 0 2 -1t-1 -4l-6 -9l-6 9q-2 3 0 4t3 1v2h-15v-2
q1 0 3.5 -1t4.5 -4l8 -12v-8q0 -4 -2 -5t-3 -1v-2h17v2q-1 0 -3 1t-2 5v8l8 12q2 3 4 4t3 1v2h-15zM568 79q1 0 2 -1t0 -4l-9 -19l-5 10l4 8q2 3 3.5 4.5t2.5 1.5v2h-26l1 -2q1 0 3 -1t4 -5l3 -5l-7 -13l-8 18q-1 3 0 4.5t2 1.5v2h-13v-2q1 0 3 -1.5t3 -4.5l13 -27h1
l0.5 -0.5t0.5 0.5l8 16l9 -16h1l12 27q2 4 4 5t3 1v2h-15v-2zM630 48.5q-2 0.5 -2 4.5v21q0 4 2 4.5t3 0.5v2h-29l-2 -10l2 -1q0 1 2.5 4.5t6.5 3.5h4q4 0 4 -3v-10h-4q-4 0 -5 2t-1 3h-2v-13h2q0 1 1 3.5t5 2.5h4v-11q0 -3 -4 -3h-4q-4 0 -7 4t-3 5l-2 -1l2 -11h30v2
q-1 0 -3 0.5zM690.5 49.5q-2.5 1.5 -2.5 3.5v20q0 2 2.5 4t3.5 2v2h-10l-24 -26v18q0 3 2.5 4.5t3.5 1.5v2h-15v-2q1 0 3.5 -1.5t2.5 -4.5v-28h3l25 28v-20q0 -2 -2 -3.5t-3 -1.5v-2h14v2q-1 0 -3.5 1.5zM405 47q-6 0 -9 5t-3 12q0 16 12 16t12 -16q0 -17 -12 -17z
M555.5 76.5q-0.5 -2.5 -2.5 -6.5q-5 9 0 9q3 0 2.5 -2.5zM349 64q-8 0 -8 8q0 6 7 6q4 0 4 -4v-10h-3zM142 -105l-11 23l-10 -23h-1l-12 34l6 1l7 -23l10 23h1l10 -23l7 22h6l-12 -34h-1zM198 -105l-11 23l-10 -23h-1l-12 34l6 1l7 -23l10 23h1l10 -23l7 22h6l-12 -34h-1z
M254 -105l-11 23l-10 -23h-1l-12 34l6 1l7 -23l10 23h1l10 -23l7 22h6l-12 -34h-1zM351 -104h-6v14l-14 19l6 1l11 -15l9 14h7l-13 -19v-14zM383 -94v-10h-6v33h6q17 0 17 -11q0 -12 -17 -12zM442 -100q-5 -5 -12 -5t-12 5t-5 12q0 8 5 13t13 5q7 0 11.5 -5t4.5 -12
q0 -8 -5 -13zM478 -105q-8 0 -13 5t-5 12q0 8 5.5 13t13.5 5q6 0 12 -4l-2 -5q-4 4 -11 4q-5 0 -8.5 -3.5t-3.5 -9.5q0 -5 4 -8.5t9 -3.5q2 0 6 2v7h-9v5h15v-15q-6 -4 -13 -4zM519 -93h-5v-11h-6v33h7q16 0 16 -10q0 -7 -7 -10l10 -13h-7zM566 -96h-14l-3 -8h-6l15 34h2
l16 -34h-6zM595 -94v-10h-6v33h6q17 0 17 -11q0 -12 -17 -12zM689 -104h-6v14l-14 19l6 1l11 -15l9 14h7l-13 -19v-14zM747 -105q-8 0 -13 4.5t-5 12.5q0 7 5.5 12.5t12.5 5.5t11 -3l-2 -5q-3 3 -9 3q-5 0 -8.5 -3.5t-3.5 -8.5q0 -13 13 -13q4 0 10 4l-1 -6q-3 -3 -10 -3z
M801 -100q-5 -5 -12 -5t-12 5t-5 12q0 8 5 13t13 5q7 0 11.5 -5t4.5 -12q0 -8 -5 -13zM850 -84l-10 -21h-2l-10 21l-3 -20h-6l6 34h1l13 -26l13 26h1l6 -34h-6zM311 -76v-28h-6v28h-12v5h30v-5h-12zM650 -89h-16v-15h-6v33h6v-13h16v13h6v-33h-6v15zM430 -75q-5 0 -8 -3.5
t-3 -8.5q0 -6 3 -9.5t8 -3.5t8 3.5t3 8.5q0 13 -11 13zM789 -75q-5 0 -8 -3.5t-3 -8.5q0 -6 3 -9.5t8 -3.5t8 3.5t3 8.5q0 13 -11 13zM383 -76v-13q11 0 11 6q0 8 -11 7zM522 -76.5q-3 1.5 -8 0.5v-12h3q8 0 8 6q0 4 -3 5.5zM595 -76v-13q11 0 11 6q0 8 -11 7zM554 -92h10
l-5 12zM280 -105q-4 0 -4 4t4 4t4 -4t-4 -4zM712 -105q-4 0 -4 4t4 4t4 -4t-4 -4z" />
    <glyph glyph-name="Ograve" unicode="&#xd2;" horiz-adv-x="850" 
d="M356 907l95 -145h-62l-113 108zM736.5 170.5q-45.5 -83.5 -127 -133t-185.5 -49.5t-185 49t-126 132t-45 180t45.5 180.5t127 133t185.5 49.5t185 -49t126 -132t45 -180t-45.5 -180.5zM664.5 494.5q-35.5 66.5 -99 105.5t-141.5 39t-140.5 -38.5t-98 -104.5t-35.5 -145
t35.5 -145.5t99 -105.5t141.5 -39t140.5 38.5t98 104.5t35.5 145t-35.5 145.5z" />
    <glyph glyph-name="Uacute" unicode="&#xda;" horiz-adv-x="759" 
d="M438 902l80 -37l-113 -108h-62zM592 69q-79 -80 -213 -80q-87 0 -152.5 35t-102 103.5t-36.5 165.5v407h79v-402q0 -113 56.5 -174.5t157.5 -61.5q99 0 155 59t56 172v407h79v-401q0 -150 -79 -230z" />
    <glyph glyph-name="Ucircumflex" unicode="&#xdb;" horiz-adv-x="759" 
d="M239 759l106 131h68l106 -131h-66l-75 67l-75 -67h-64zM592 69q-79 -80 -213 -80q-87 0 -152.5 35t-102 103.5t-36.5 165.5v407h79v-402q0 -113 56.5 -174.5t157.5 -61.5q99 0 155 59t56 172v407h79v-401q0 -150 -79 -230z" />
    <glyph glyph-name="Ugrave" unicode="&#xd9;" horiz-adv-x="759" 
d="M321 902l95 -145h-62l-113 108zM592 69q-79 -80 -213 -80q-87 0 -152.5 35t-102 103.5t-36.5 165.5v407h79v-402q0 -113 56.5 -174.5t157.5 -61.5q99 0 155 59t56 172v407h79v-401q0 -150 -79 -230z" />
    </font>
</defs>
</svg>
